<?xml version="1.0" standalone="no"?>
<!DOCTYPE svg PUBLIC "-//W3C//DTD SVG 1.1//EN" "http://www.w3.org/Graphics/SVG/1.1/DTD/svg11.dtd" >
<svg xmlns="http://www.w3.org/2000/svg" xmlns:xlink="http://www.w3.org/1999/xlink" version="1.1">
<metadata></metadata>
<defs>
<font id="encode_sansbold" horiz-adv-x="569" >
<font-face units-per-em="2048" ascent="1638" descent="-410" />
<missing-glyph horiz-adv-x="515" />
<glyph horiz-adv-x="0" />
<glyph horiz-adv-x="682" />
<glyph horiz-adv-x="0" />
<glyph horiz-adv-x="0" />
<glyph unicode="&#xd;" horiz-adv-x="515" />
<glyph unicode=" "  horiz-adv-x="515" />
<glyph unicode="&#x09;" horiz-adv-x="515" />
<glyph unicode="&#xa0;" horiz-adv-x="515" />
<glyph unicode="!" horiz-adv-x="610" d="M93 171q0 87 57 138t155 51t155 -52t57 -137q0 -84 -58 -136t-154 -52t-154 51t-58 137zM132 987v529h347v-529l-72 -508h-199z" />
<glyph unicode="&#x22;" horiz-adv-x="931" d="M83 1655h321l-61 -790h-199zM527 1655h321l-61 -790h-199z" />
<glyph unicode="#" horiz-adv-x="1284" d="M102 402v247h1080v-247h-1080zM102 866v247h1080v-247h-1080zM222 0l158 1516h251l-158 -1516h-251zM653 0l158 1516h251l-158 -1516h-251z" />
<glyph unicode="$" horiz-adv-x="1180" d="M56 1074q0 217 159 339t482 122q96 0 187 -11t163 -30v-270q-73 22 -160.5 33t-167.5 11q-126 0 -198 -22t-103 -62t-31 -92q0 -67 41 -105t154 -68l113 -30q147 -36 242.5 -95t141 -144.5t45.5 -202.5q0 -145 -72.5 -250t-210 -160.5t-333.5 -55.5q-104 0 -213.5 15.5 t-202.5 44.5v270q65 -19 137.5 -33.5t143 -22t130.5 -7.5q108 0 171 21t91.5 60.5t28.5 95.5q0 71 -47 110.5t-174 72.5l-114 30q-199 50 -301 156t-102 280zM437 57l307 3v-306h-307v303zM437 1473v288h307v-288h-307z" />
<glyph unicode="%" horiz-adv-x="2144" d="M86 1059q0 162 51.5 267.5t144.5 157t215 51.5t214.5 -51.5t144 -157t51.5 -267.5q0 -161 -52 -266.5t-144 -157t-214 -51.5t-215 51.5t-144.5 157t-51.5 266.5zM343 1060q0 -102 19.5 -161.5t54.5 -85.5t80 -26t79.5 25.5t54 84.5t19.5 162q0 102 -19.5 161.5t-54 85 t-79.5 25.5t-80 -25.5t-54.5 -84.5t-19.5 -161zM599 0l680 1516h266l-680 -1516h-266zM1237 458q0 161 51.5 266.5t144.5 157.5t215 52t214.5 -52t144 -158t51.5 -266q0 -162 -51.5 -267.5t-144 -157t-214.5 -51.5t-215 51.5t-144.5 157t-51.5 267.5zM1494 459 q0 -102 20 -162t54.5 -85.5t79.5 -25.5t79.5 25.5t54 84t19.5 161.5t-19.5 162.5t-54 84.5t-79.5 25t-79.5 -25t-54.5 -84.5t-20 -160.5z" />
<glyph unicode="&#x26;" horiz-adv-x="1640" d="M108 415q0 99 37.5 179t103.5 135.5t150 85.5l170 -128q-62 -41 -97 -99t-35 -137q0 -73 35.5 -125.5t104.5 -81t172 -28.5q113 0 199 39t136 128t50 240q0 60 -10 128t-27 132h263q17 -63 25.5 -130.5t8.5 -126.5q0 -213 -82 -356.5t-235 -215.5t-366 -72 q-200 0 -334 53.5t-201.5 151t-67.5 228.5zM248 1070q0 218 156.5 341.5t478.5 123.5q77 0 144 -6t125 -19v-270q-54 12 -118.5 20t-126.5 8q-123 0 -194.5 -24.5t-102 -71t-30.5 -109.5q0 -43 14.5 -80t51 -75t99.5 -84l895 -602l-150 -242l-896 602q-137 92 -212.5 172.5 t-104.5 157t-29 158.5z" />
<glyph unicode="'" horiz-adv-x="487" d="M83 1655h321l-61 -790h-199z" />
<glyph unicode="(" horiz-adv-x="733" d="M106 602q0 305 82 572.5t269 480.5h341q-126 -156 -205 -322.5t-116 -347.5t-37 -383t37 -383t116 -347.5t205 -322.5h-341q-186 213 -268.5 480.5t-82.5 572.5z" />
<glyph unicode=")" horiz-adv-x="733" d="M-65 -451q126 156 205 322.5t115.5 347.5t36.5 383t-36.5 383t-115.5 347.5t-205 322.5h341q186 -213 268.5 -480.5t82.5 -572.5t-82 -572.5t-269 -480.5h-341z" />
<glyph unicode="*" horiz-adv-x="1030" d="M31 1247l67 206l170 -56l175 -95l-36 196v157h217v-157l-37 -196l175 95l170 56l67 -206l-171 -55l-192 -27l142 -135l95 -130l-176 -127l-94 129l-88 189l-89 -189l-94 -129l-175 127l94 130l142 135l-191 27z" />
<glyph unicode="+" horiz-adv-x="1126" d="M120 653v250h313v327h260v-327h314v-250h-314v-326h-260v326h-313z" />
<glyph unicode="," d="M73 181q0 93 56 145.5t151 52.5q105 0 160 -64.5t55 -193.5q0 -124 -43.5 -248.5t-116.5 -222.5h-187q50 110 78.5 203t28.5 188l71 -58h-41q-95 0 -153.5 53.5t-58.5 144.5z" />
<glyph unicode="-" horiz-adv-x="930" d="M120 447v267h691v-267h-691z" />
<glyph unicode="." d="M73 180q0 92 56.5 145.5t155.5 53.5q98 0 155 -54.5t57 -144.5q0 -89 -58 -143t-154 -54t-154 53t-58 144z" />
<glyph unicode="/" horiz-adv-x="806" d="M0 -246l485 1901h322l-485 -1901h-322z" />
<glyph unicode="0" horiz-adv-x="1370" d="M96 758q0 271 71 443t202.5 253t315.5 81q183 0 315.5 -81t203 -253t70.5 -443t-71 -443.5t-203.5 -253t-314.5 -80.5q-183 0 -315 80.5t-203 252.5t-71 444zM423 759q0 -194 30.5 -304.5t89.5 -156t142 -45.5t141.5 45.5t89.5 155t31 303.5t-31 304t-89.5 156t-141.5 46 q-82 0 -141.5 -46t-90 -155.5t-30.5 -302.5z" />
<glyph unicode="1" horiz-adv-x="850" d="M28 890v310l462 321h215v-1521h-333v1322l118 -113z" />
<glyph unicode="2" horiz-adv-x="1099" d="M31 1208v271q45 16 108 29t131.5 20t131.5 7q281 0 425.5 -105t144.5 -333q0 -77 -20 -153.5t-67.5 -160t-128.5 -181.5l-338 -412l-9 84h635v-274h-995v178l419 522q65 82 103.5 145.5t55.5 116.5t17 103q0 103 -65 153t-212 50q-90 0 -178.5 -16t-157.5 -44z" />
<glyph unicode="3" horiz-adv-x="1113" d="M44 33v249q87 -25 188.5 -39.5t192.5 -14.5q164 0 238.5 54.5t74.5 158.5q0 100 -71 154t-240 54h-222v252h172q164 0 235 52.5t71 146.5q0 92 -65 139.5t-205 47.5q-85 0 -175 -14.5t-167 -41.5v249q49 16 112.5 29t132 19.5t133.5 6.5q275 0 413.5 -106t138.5 -300 q0 -137 -78 -231t-216 -124l1 17q165 -25 254 -118.5t89 -251.5q0 -137 -67.5 -236t-203.5 -151.5t-342 -52.5q-105 0 -205 13t-189 39z" />
<glyph unicode="4" horiz-adv-x="1303" d="M38 312v182l528 1022h320l-522 -1023l-37 75h943v-256h-1232zM775 0v568l34 436h265v-1004h-299z" />
<glyph unicode="5" horiz-adv-x="1125" d="M72 37v249q86 -25 187 -40t194 -15q163 0 236.5 54.5t73.5 158.5q0 71 -38 118t-135.5 74.5t-278.5 38.5l-192 10l52 831h845v-256h-684l145 143l-40 -591l-194 118l191 -11q230 -12 371.5 -67.5t206.5 -155t65 -243.5q0 -230 -154.5 -351t-456.5 -121 q-105 0 -205.5 14.5t-188.5 41.5z" />
<glyph unicode="6" horiz-adv-x="1280" d="M105 709q0 279 85.5 462.5t249.5 273.5t399 90q85 0 163.5 -9.5t145.5 -36.5v-254q-68 25 -142.5 36t-151.5 11q-143 0 -237.5 -52t-141 -160t-46.5 -274v-138q0 -128 19 -213t54.5 -134t85 -70t111.5 -21q66 0 116.5 24t80 74t29.5 127q0 79 -31 129.5t-86.5 74.5 t-131.5 24q-53 0 -107.5 -13t-104 -40t-88.5 -70v232q59 61 159 95t206 34q138 0 248 -48t173.5 -149t63.5 -259q0 -148 -64.5 -255t-183.5 -163t-281 -56q-132 0 -240.5 41t-187 129t-121.5 226t-43 332z" />
<glyph unicode="7" horiz-adv-x="1047" d="M11 1241v275h977v-179l-489 -1337h-341l513 1338l109 -97h-769z" />
<glyph unicode="8" horiz-adv-x="1370" d="M83 378q0 135 84.5 236t243.5 151l216 -82q-121 -39 -177.5 -111.5t-56.5 -155.5q0 -98 73.5 -152t223.5 -54q146 0 215.5 49t69.5 137q0 59 -30 102.5t-105 77t-211 67.5q-189 48 -299.5 116t-157.5 157.5t-47 197.5q0 126 65 221t193.5 147.5t319.5 52.5 q255 0 397 -102.5t142 -280.5q0 -80 -29.5 -151.5t-95 -130t-173.5 -100.5l-199 84q113 54 161.5 117.5t48.5 147.5q0 90 -65 138.5t-191 48.5q-135 0 -198 -50.5t-63 -129.5q0 -57 27.5 -99t102.5 -78t219 -73q189 -51 298 -116.5t154 -150t45 -193.5q0 -125 -66 -224 t-198 -155t-331 -56q-209 0 -343.5 50.5t-198.5 140t-64 206.5z" />
<glyph unicode="9" horiz-adv-x="1280" d="M54 1061q0 148 64.5 255t183.5 163t281 56q132 0 240.5 -41t187 -129t121.5 -226t43 -332q0 -279 -85.5 -462.5t-249.5 -273.5t-399 -90q-85 0 -163.5 9.5t-145.5 36.5v254q68 -25 142.5 -36t151.5 -11q143 0 237.5 52t141 160t46.5 274v138q0 128 -19 213t-54.5 134 t-85 70t-111.5 21q-66 0 -116.5 -24t-80 -74t-29.5 -127q0 -79 31 -129.5t86.5 -74.5t131.5 -24q53 0 107.5 13t104 40t88.5 70v-232q-59 -61 -159 -95t-206 -34q-138 0 -248 48t-173.5 149t-63.5 259z" />
<glyph unicode=":" d="M73 180q0 92 56.5 145.5t155.5 53.5q98 0 155 -54.5t57 -144.5q0 -89 -58 -143t-154 -54t-154 53t-58 144zM73 939q0 92 56.5 145.5t155.5 53.5q98 0 155 -54.5t57 -144.5q0 -89 -58 -143t-154 -54t-154 53t-58 144z" />
<glyph unicode=";" d="M73 181q0 93 56 145.5t151 52.5q105 0 160 -64.5t55 -193.5q0 -124 -43.5 -248.5t-116.5 -222.5h-187q50 110 78.5 203t28.5 188l71 -58h-41q-95 0 -153.5 53.5t-58.5 144.5zM73 939q0 92 56.5 145.5t155.5 53.5q98 0 155 -54.5t57 -144.5q0 -89 -58 -143t-154 -54 t-154 53t-58 144z" />
<glyph unicode="&#x3c;" horiz-adv-x="1126" d="M120 624v309l887 337v-252l-704 -256v37l704 -260v-252z" />
<glyph unicode="=" horiz-adv-x="1126" d="M120 425v250h887v-250h-887zM120 882v250h887v-250h-887z" />
<glyph unicode="&#x3e;" horiz-adv-x="1126" d="M120 287v252l703 260v-37l-703 256v252l887 -337v-309z" />
<glyph unicode="?" horiz-adv-x="1014" d="M32 1224v256q49 16 112.5 29t132 19.5t133.5 6.5q276 0 415 -106.5t139 -303.5q0 -110 -45 -192t-131 -141t-210 -98l-24 -220h-200l-56 376q135 29 211 64.5t106 81t30 103.5q0 89 -65.5 135t-207.5 46q-84 0 -173 -14.5t-167 -41.5zM243 171q0 87 56.5 138t155.5 51 q98 0 154.5 -52t56.5 -137q0 -84 -57.5 -136t-153.5 -52t-154 51t-58 137z" />
<glyph unicode="@" horiz-adv-x="2141" d="M86 532q0 346 117.5 568t339.5 328t535 106q315 0 533.5 -103.5t331 -311t112.5 -521.5q0 -226 -59.5 -362t-164 -196t-240.5 -60q-116 0 -195 38.5t-124 114.5h-18q-39 -83 -119.5 -118t-175.5 -35q-171 0 -267 88.5t-96 234.5q0 159 109.5 246.5t353.5 105.5l238 21 l35 -176l-242 -21q-88 -7 -130 -41.5t-42 -99.5q0 -66 40.5 -97.5t107.5 -31.5q42 0 92 17t86 54v397q0 75 -24.5 118.5t-79 62t-143.5 18.5q-66 0 -146.5 -13.5t-154.5 -40.5l2 246q80 28 175.5 41.5t182.5 13.5q174 0 286 -43.5t166.5 -144t54.5 -271.5v-348q0 -67 26 -96 t74 -29q47 0 84.5 33t59 119.5t21.5 246.5q0 197 -45.5 336t-138.5 226.5t-234 129t-332 41.5q-188 0 -329 -43.5t-233 -136.5t-138 -243.5t-46 -365.5q0 -216 46.5 -368t142.5 -245.5t244.5 -137t352.5 -43.5q120 0 234 14.5t230 42.5v-212q-111 -28 -227 -42t-237 -14 q-333 0 -563 106.5t-349.5 328t-119.5 568.5z" />
<glyph unicode="A" horiz-adv-x="1491" d="M14 0l490 1516h484l490 -1516h-328l-424 1370h35l-423 -1370h-324zM354 404l72 266h639l71 -266h-782z" />
<glyph unicode="B" horiz-adv-x="1364" d="M136 12v1470q71 15 152 27t166.5 18.5t168.5 6.5q225 0 368 -46.5t210.5 -140.5t67.5 -235q0 -84 -32.5 -154t-94 -118t-149.5 -66l1 13q144 -20 230 -110.5t86 -251.5q0 -105 -40 -187.5t-128 -139.5t-231 -86t-348 -29q-62 0 -136.5 3.5t-149.5 10t-141 15.5zM426 650 v249h253q101 0 162 22t88 65t27 109q0 103 -65.5 149.5t-225.5 46.5q-58 0 -107.5 -4.5t-96.5 -12.5v-1040q52 -5 97 -7t94 -2q133 0 209.5 23.5t108.5 71t32 119.5q0 110 -68 160.5t-223 50.5h-285z" />
<glyph unicode="C" horiz-adv-x="1266" d="M86 755q0 260 94 433.5t274.5 260t437.5 86.5q87 0 168 -8.5t158 -27.5v-274q-72 17 -146.5 26.5t-152.5 9.5q-164 0 -271 -51t-160.5 -161.5t-53.5 -289.5q0 -185 53 -295.5t158 -159.5t262 -49q78 0 155 13t156 35v-273q-73 -23 -161.5 -36t-180.5 -13 q-188 0 -335 44.5t-249 138t-154 240t-52 351.5z" />
<glyph unicode="D" horiz-adv-x="1536" d="M136 9v1473q71 15 151.5 26.5t164.5 17.5t164 6q413 0 623.5 -188t210.5 -586q0 -271 -99.5 -442t-299 -251t-499.5 -80q-63 0 -133 2.5t-141.5 7.5t-141.5 14zM469 262q42 -4 83.5 -5.5t85.5 -1.5q158 0 263 49.5t156.5 161t51.5 293.5q0 181 -52.5 292t-157 162 t-259.5 51q-39 0 -85 -4.5t-86 -11.5v-986z" />
<glyph unicode="E" horiz-adv-x="1284" d="M136 0v1516h1064v-267h-735v-983h745v-266h-1074zM334 642v266h762v-266h-762z" />
<glyph unicode="F" horiz-adv-x="1242" d="M136 0v1516h1061v-272h-728v-1244h-333zM348 604v272h745v-272h-745z" />
<glyph unicode="G" horiz-adv-x="1460" d="M86 755q0 261 99.5 434t291 259.5t468.5 86.5q89 0 174.5 -9t167.5 -29v-274q-80 19 -157 28.5t-155 9.5q-185 0 -305 -51.5t-179 -163.5t-59 -296q0 -172 55 -281.5t164.5 -161t274.5 -51.5q62 0 123.5 4.5t112.5 12.5l-142 -123v587h310v-721q-98 -16 -192 -24.5 t-187 -8.5q-288 0 -480 83.5t-288.5 254.5t-96.5 434z" />
<glyph unicode="H" horiz-adv-x="1562" d="M136 0v1516h333v-594h625v594h332v-1516h-332v629h-625v-629h-333z" />
<glyph unicode="I" horiz-adv-x="605" d="M136 0v1516h333v-1516h-333z" />
<glyph unicode="J" horiz-adv-x="605" d="M-23 -217q59 80 95 156.5t51 165t15 201.5v1210h331v-1209q0 -127 -27 -237t-89 -214.5t-164 -213.5z" />
<glyph unicode="K" horiz-adv-x="1361" d="M136 0v1516h333v-1516h-333zM423 629v293h226v-293h-226zM518 772l497 744h350l-521 -781l5 86l560 -821h-362z" />
<glyph unicode="L" horiz-adv-x="1175" d="M136 0v1516h333v-1240h696v-276h-1029z" />
<glyph unicode="M" horiz-adv-x="1922" d="M140 0v1516h405l442 -1002h-40l430 1002h405v-1516h-311v1225h66l-439 -1006h-274l-453 1006h80v-1225h-311z" />
<glyph unicode="N" horiz-adv-x="1580" d="M136 0v1516h334l718 -1103h-58v1103h314v-1516h-335l-717 1103h58v-1103h-314z" />
<glyph unicode="O" horiz-adv-x="1599" d="M86 758q0 264 88.5 436.5t249 256.5t376.5 84t376 -84.5t248.5 -257t88.5 -435.5t-88.5 -435.5t-249 -257t-375.5 -84.5q-216 0 -376.5 83.5t-249 256.5t-88.5 437zM427 765q0 -187 44.5 -300.5t128 -164.5t200.5 -51t200 50.5t127.5 161t44.5 290.5q0 186 -45 299 t-128.5 165t-198.5 52q-116 0 -199.5 -50.5t-128.5 -161t-45 -290.5z" />
<glyph unicode="P" horiz-adv-x="1348" d="M136 0v1488q106 22 219.5 34t239.5 12q338 0 508.5 -131.5t170.5 -416.5q0 -268 -165.5 -407.5t-493.5 -139.5q-39 0 -73.5 1.5t-72.5 4.5v-445h-333zM469 698q38 -4 73 -6.5t78 -2.5q171 0 250.5 69t79.5 226q0 158 -79 229t-245 71q-46 0 -83 -2.5t-74 -9.5v-574z" />
<glyph unicode="Q" horiz-adv-x="1599" d="M86 751q0 267 88.5 441t249 258.5t376.5 84.5t376 -84t248.5 -256.5t88.5 -436.5q0 -233 -74.5 -401t-223.5 -258t-372 -90q-38 0 -78 2.5t-82 7.5l103 83q117 -46 235 -77.5t236 -53t237 -34.5l-55 -261q-315 47 -545 118t-386 165.5t-248.5 214t-133 263.5t-40.5 314z M427 765q0 -188 44 -301.5t127.5 -164t201.5 -50.5q117 0 200 50.5t127.5 161t44.5 290.5q0 186 -45 299t-128.5 165t-198.5 52q-116 0 -199.5 -50.5t-128.5 -161t-45 -290.5z" />
<glyph unicode="R" horiz-adv-x="1411" d="M136 0v1482q69 15 146.5 27t160.5 18.5t167 6.5q327 0 492 -118.5t165 -368.5q0 -162 -78 -271t-222 -164.5t-343 -55.5q-45 0 -83 1.5t-78 3.5v-561h-327zM463 812q30 -2 56 -4.5t53 -3t58 -0.5q165 0 244.5 57.5t79.5 185.5q0 84 -33.5 137.5t-102 79t-174.5 25.5 q-52 0 -96 -4t-85 -12v-461zM541 700h356l495 -700h-364z" />
<glyph unicode="S" horiz-adv-x="1180" d="M56 1074q0 217 157.5 339t473.5 122q102 0 195 -12t165 -32v-270q-73 23 -162 35t-179 12q-119 0 -189 -22t-100 -62t-30 -92q0 -67 41 -105t154 -68l113 -30q147 -36 242.5 -95t141 -144.5t45.5 -202.5q0 -145 -72 -250t-208 -160.5t-329 -55.5q-110 0 -220 16.5 t-203 47.5v270q65 -22 137.5 -36.5t146 -22.5t138.5 -8q153 0 216.5 46.5t63.5 130.5q0 71 -47 110.5t-174 72.5l-114 30q-199 50 -301 156t-102 280z" />
<glyph unicode="T" horiz-adv-x="1315" d="M13 1239v277h1290v-277h-478v-1239h-333v1239h-479z" />
<glyph unicode="U" horiz-adv-x="1530" d="M130 628v888h332v-921q0 -180 76.5 -261t230.5 -81t230 81t76 261v921h326v-888q0 -218 -66.5 -362t-207 -214.5t-358.5 -70.5q-221 0 -362.5 70.5t-209 214.5t-67.5 362z" />
<glyph unicode="V" horiz-adv-x="1465" d="M1 1516h348l428 -1380h-71l435 1380h323l-485 -1516h-492z" />
<glyph unicode="W" horiz-adv-x="2333" d="M31 1516h337l342 -1370h-83l365 1370h368l353 -1370h-77l351 1370h315l-400 -1516h-427l-346 1313h89l-360 -1313h-427z" />
<glyph unicode="X" horiz-adv-x="1409" d="M-33 0l541 785l197 245l331 486h360l-498 -728l-198 -242l-369 -546h-364zM4 1516h369l332 -486l193 -242l540 -788h-368l-370 546l-192 239z" />
<glyph unicode="Y" horiz-adv-x="1315" d="M-53 1516h353l415 -670h-94l409 670h328l-599 -985l67 240v-771h-332v776l67 -245z" />
<glyph unicode="Z" horiz-adv-x="1268" d="M60 0v182l749 1121l4 -64h-741v277h1125v-183l-747 -1120l-6 63h764v-276h-1148z" />
<glyph unicode="[" horiz-adv-x="733" d="M157 -451v2106h607v-257h-281v-1592h274v-257h-600z" />
<glyph unicode="\" horiz-adv-x="807" d="M0 1655h323l485 -1901h-322z" />
<glyph unicode="]" horiz-adv-x="733" d="M-31 1398v257h608v-2106h-601v257h274v1592h-281z" />
<glyph unicode="^" horiz-adv-x="1284" d="M67 758l420 758h310l422 -758h-318l-326 598h134l-325 -598h-317z" />
<glyph unicode="_" horiz-adv-x="1239" d="M90 -1h1059v-256h-1059v256z" />
<glyph unicode="`" horiz-adv-x="1167" d="M186 1655h346l232 -392h-299z" />
<glyph unicode="a" horiz-adv-x="1143" d="M65 303q0 159 110 248t355 105l236 20l35 -180l-238 -20q-94 -7 -135.5 -43t-41.5 -98q0 -61 38 -94.5t111 -33.5q45 0 92 16t86 55v409q0 77 -25 121t-81 63t-149 19q-65 0 -147 -11t-156 -34v246q82 24 179.5 35.5t181.5 11.5q178 0 292.5 -44t168.5 -147t54 -280v-667 h-268l-23 112h-15q-50 -69 -128 -100.5t-169 -31.5q-172 0 -267.5 89.5t-95.5 233.5z" />
<glyph unicode="b" horiz-adv-x="1259" d="M122 42v1613h325v-644h17q49 60 121.5 93.5t168.5 33.5q117 0 216 -57.5t158.5 -180.5t59.5 -317q0 -296 -157 -449.5t-478 -153.5q-108 0 -221 15t-210 47zM447 243q28 -7 62.5 -12t72.5 -5q138 0 208 76.5t70 254.5q0 122 -29 190t-81 95.5t-120 27.5 q-49 0 -97.5 -15.5t-85.5 -50.5v-561z" />
<glyph unicode="c" horiz-adv-x="984" d="M71 558q0 198 72 326.5t209.5 191t333.5 62.5q68 0 131 -6.5t119 -19.5v-258q-53 10 -103.5 15t-101.5 5q-113 0 -184.5 -31.5t-105 -100.5t-33.5 -181q0 -116 33 -186t98.5 -101.5t163.5 -31.5q53 0 107.5 9t125.5 29v-258q-61 -20 -134 -32t-150 -12 q-187 0 -316.5 63.5t-197 192t-67.5 324.5z" />
<glyph unicode="d" horiz-adv-x="1259" d="M71 537q0 196 69.5 329.5t205 203t336.5 69.5q34 0 67 -2.5t62 -6.5v525h327v-1655h-275l-19 118h-16q-48 -61 -123.5 -99t-174.5 -38q-124 0 -228.5 56t-167.5 179t-63 321zM399 562q0 -122 29 -190.5t79.5 -96.5t119.5 -28q50 0 99.5 18.5t84.5 57.5v555 q-27 6 -61.5 9.5t-68.5 3.5q-140 0 -211 -75.5t-71 -253.5z" />
<glyph unicode="e" horiz-adv-x="1135" d="M71 561q0 185 61 314.5t177 196t282 66.5q159 0 267.5 -67t163.5 -198.5t55 -321.5v-85h-820v187h568l-52 -19q0 111 -20.5 176.5t-62 93t-102.5 27.5q-62 0 -105 -27.5t-65 -93t-22 -175.5v-131q0 -103 30.5 -164t103.5 -88t202 -27q66 0 138 10t145 26v-245 q-89 -20 -169.5 -29t-159.5 -9q-211 0 -347 60.5t-202 189.5t-66 333z" />
<glyph unicode="f" horiz-adv-x="821" d="M26 863v257h800v-257h-800zM208 0v1200q0 150 57.5 256.5t169.5 162.5t276 56q44 0 84 -3t78 -9v-255q-30 4 -56.5 6t-56.5 2q-119 0 -174 -48t-55 -153v-1215h-323z" />
<glyph unicode="g" horiz-adv-x="1259" d="M71 538q0 290 157.5 445t478.5 155q72 0 148 -7.5t148.5 -21t134.5 -34.5v-970q0 -304 -152 -440t-462 -136q-89 0 -186 10.5t-188 35.5v255q94 -26 183 -38t166 -12q164 0 238 61.5t74 204.5v74h-15q-48 -59 -121.5 -93t-168.5 -34q-115 0 -214 58t-160 178t-61 309z M399 565q0 -119 29 -186t80.5 -94t121.5 -27q49 0 97 17t84 51v551q-27 6 -61 10t-72 4q-135 0 -207 -75.5t-72 -250.5z" />
<glyph unicode="h" horiz-adv-x="1251" d="M122 0v1655h325v-647h17q57 63 135 96.5t174 33.5q102 0 185 -43t132 -140t49 -257v-698h-327v677q0 102 -42.5 140.5t-115.5 38.5q-37 0 -74.5 -9.5t-72 -30t-60.5 -51.5v-765h-325z" />
<glyph unicode="i" horiz-adv-x="570" d="M83 1453q0 82 49.5 126.5t151.5 44.5q103 0 152.5 -44.5t49.5 -126.5q0 -80 -49.5 -125t-152.5 -45q-102 0 -151.5 45t-49.5 125zM122 0v1120h327v-1120h-327z" />
<glyph unicode="j" horiz-adv-x="570" d="M-39 -342q59 79 94.5 156.5t51 166.5t15.5 199v940h327v-926q0 -129 -27 -242.5t-88 -219t-162 -214.5zM80 1455q0 82 49.5 126.5t151.5 44.5q103 0 152.5 -44.5t49.5 -126.5q0 -80 -49.5 -125t-152.5 -45q-102 0 -151.5 45t-49.5 125z" />
<glyph unicode="k" horiz-adv-x="1207" d="M122 0v1655h325v-1655h-325zM420 444v262h185v-262h-185zM489 575l368 545h348l-385 -581v86l421 -625h-355z" />
<glyph unicode="l" d="M122 0v1655h325v-1655h-325z" />
<glyph unicode="m" horiz-adv-x="1847" d="M122 0v1120h269l22 -114h15q59 66 138.5 99t175.5 33q99 0 178.5 -42.5t125.5 -137.5t46 -250v-708h-320v680q0 100 -37.5 138.5t-102.5 38.5q-33 0 -67.5 -10t-64.5 -30.5t-53 -52.5v-764h-325zM1005 967q75 91 169 131t189 40q108 0 191.5 -43t132 -140.5t48.5 -257.5 v-697h-326v680q0 100 -41 138.5t-105 38.5q-36 0 -71.5 -10.5t-67 -33t-55.5 -58.5z" />
<glyph unicode="n" horiz-adv-x="1251" d="M122 0v1120h269l22 -113h15q62 63 146 97t183 34q111 0 197 -43.5t135.5 -140.5t49.5 -256v-698h-327v678q0 101 -42 140t-116 39q-37 0 -74 -9.5t-71.5 -30t-61.5 -51.5v-766h-325z" />
<glyph unicode="o" horiz-adv-x="1232" d="M71 557q0 196 65 325t187 192.5t293 63.5t293.5 -64t187.5 -192.5t65 -322.5q0 -195 -66.5 -324t-189 -193t-290.5 -64t-290 64t-188.5 193t-66.5 322zM399 560q0 -129 26 -201.5t74 -102.5t117 -30t117.5 30t74.5 102t26 198q0 129 -26 201.5t-74.5 103t-117.5 30.5 t-117 -30t-74 -102t-26 -199z" />
<glyph unicode="p" horiz-adv-x="1259" d="M122 -451v1571h274l20 -120h15q48 62 123.5 100t174.5 38q124 0 228.5 -56.5t167.5 -179t63 -320.5q0 -196 -69 -330t-205 -203t-336 -69q-34 0 -67.5 2.5t-63.5 5.5v-439h-325zM447 241q28 -5 63 -9.5t68 -4.5q141 0 211.5 76t70.5 253q0 123 -28.5 191.5t-80 96 t-118.5 27.5q-50 0 -100 -17.5t-86 -57.5v-555z" />
<glyph unicode="q" horiz-adv-x="1259" d="M71 535q0 297 157.5 450t477.5 153q73 0 149 -7.5t148.5 -21t134.5 -34.5v-1526h-327v557h-15q-48 -59 -121.5 -92.5t-168.5 -33.5q-118 0 -217 57.5t-158.5 180t-59.5 317.5zM399 561q0 -123 29 -191t81 -95.5t121 -27.5q49 0 97 16.5t84 50.5v563q-27 6 -61 10t-73 4 q-134 0 -206 -75.5t-72 -254.5z" />
<glyph unicode="r" horiz-adv-x="829" d="M122 0v1120h267l25 -144h16q47 83 125 121.5t171 38.5q26 0 49.5 -2t41.5 -7v-294q-26 5 -55 6.5t-55 1.5q-48 0 -97.5 -12t-91.5 -36t-71 -59v-734h-325z" />
<glyph unicode="s" horiz-adv-x="1001" d="M63 780q0 161 130 259.5t398 98.5q82 0 159 -9.5t140 -25.5v-240q-66 18 -139.5 27.5t-150.5 9.5q-93 0 -143 -16t-70 -41.5t-20 -55.5q0 -36 22.5 -58t77.5 -35l182 -32q150 -28 226 -102.5t76 -220.5q0 -167 -130 -264t-370 -97q-96 0 -187 12.5t-171 37.5v239 q81 -25 171 -37.5t182 -12.5q111 0 156.5 29t45.5 82q0 42 -22.5 63.5t-78.5 32.5l-182 33q-158 30 -230 109.5t-72 213.5z" />
<glyph unicode="t" horiz-adv-x="863" d="M17 863v257h803v-257h-803zM200 400v720l59 396h266v-1064q0 -116 43.5 -160t141.5 -44q27 0 55 3.5t62 9.5v-258q-44 -9 -98.5 -16t-107.5 -7q-203 0 -312 100.5t-109 319.5z" />
<glyph unicode="u" horiz-adv-x="1242" d="M113 419v701h326v-679q0 -101 42.5 -140t111.5 -39q34 0 71 10t71 30.5t60 50.5v767h325v-1120h-268l-23 113h-14q-63 -65 -144 -98.5t-172 -33.5q-112 0 -199 43.5t-137 139.5t-50 255z" />
<glyph unicode="v" horiz-adv-x="1193" d="M-1 1120h341l278 -862h-23l278 862h322l-394 -1120h-409z" />
<glyph unicode="w" horiz-adv-x="1854" d="M44 1120h309l201 -803h-16l217 803h360l213 -803h-22l207 803h296l-299 -1120h-361l-228 845h19l-233 -845h-361z" />
<glyph unicode="x" horiz-adv-x="1153" d="M-8 0l392 564l197 231l220 325h348l-382 -552l-193 -228l-232 -340h-350zM-1 1120h359l223 -325l186 -227l395 -568h-359l-229 340l-190 224z" />
<glyph unicode="y" horiz-adv-x="1193" d="M-1 1120h341l355 -1120h-303zM322 -451l160 451l113 258l278 862h322l-553 -1571h-320z" />
<glyph unicode="z" horiz-adv-x="1036" d="M67 0v206l551 717v-60h-540v257h897v-206l-552 -716v59h562v-257h-918z" />
<glyph unicode="{" horiz-adv-x="774" d="M10 516v256h53q62 0 98.5 35.5t36.5 99.5v371q0 196 108 296.5t321 100.5q52 0 96.5 -3.5t81.5 -9.5v-249h-123q-79 0 -118.5 -33t-39.5 -111v-354q0 -137 -75 -210.5t-252 -79.5v39q177 -6 252 -80t75 -210v-439q0 -77 39.5 -110.5t118.5 -33.5h123v-249 q-37 -6 -81.5 -9.5t-96.5 -3.5q-213 0 -321 101.5t-108 295.5v455q0 66 -36 100.5t-99 34.5h-53z" />
<glyph unicode="|" horiz-adv-x="566" d="M136 -451v2106h294v-2106h-294z" />
<glyph unicode="}" horiz-adv-x="774" d="M-31 -209h123q79 0 118.5 34t39.5 110v439q0 136 76 209.5t252 80.5v-39q-175 6 -251.5 79.5t-76.5 210.5v354q0 78 -39.5 111t-118.5 33h-123v249q38 6 82.5 9.5t95.5 3.5q213 0 321.5 -100.5t108.5 -296.5v-371q0 -65 35.5 -100t98.5 -35h53v-256h-53q-62 0 -98 -35 t-36 -100v-455q0 -195 -108.5 -296t-321.5 -101q-51 0 -95.5 3.5t-82.5 9.5v249z" />
<glyph unicode="~" horiz-adv-x="1126" d="M120 602v256q91 101 242 101q61 0 117 -20t107 -44q48 -22 93.5 -39t90.5 -17q70 0 125 27t112 85v-257q-91 -100 -243 -100q-60 0 -115.5 20.5t-108.5 43.5q-47 20 -93 38t-91 18q-69 0 -124 -27t-112 -85z" />
<glyph unicode="&#xa1;" horiz-adv-x="610" d="M93 940q0 92 58 145t154 53t154 -54t58 -144q0 -89 -57 -144t-155 -55t-155 54t-57 145zM132 123l76 500h199l72 -499v-513h-347v512z" />
<glyph unicode="&#xa2;" horiz-adv-x="989" d="M71 558q0 198 72 326.5t209.5 191t333.5 62.5q69 0 131 -6.5t119 -19.5v-258q-53 10 -103.5 15t-102.5 5q-113 0 -184 -31.5t-104.5 -100.5t-33.5 -181q0 -116 33 -186t98.5 -101.5t163.5 -31.5q53 0 107.5 9t125.5 29v-258q-61 -20 -134 -32t-150 -12 q-187 0 -316.5 63.5t-197 192t-67.5 324.5zM481 43h279v-289h-279v289zM481 1077v289h279v-289h-279z" />
<glyph unicode="&#xa3;" horiz-adv-x="1375" d="M75 0v265h1239v-265h-1239zM75 647v242h998v-242h-998zM275 99v928q0 250 160 379t484 129q96 0 187 -11t163 -30v-270q-73 22 -160.5 33t-168.5 11q-126 0 -200.5 -23t-108 -73.5t-33.5 -132.5v-940h-323z" />
<glyph unicode="&#xa4;" horiz-adv-x="1284" d="M90 1150l160 159l114 -117l175 -206l-126 -124l-205 173zM91 366l117 114l202 170l126 -126l-171 -200l-114 -117zM267 758q0 112 49 196t134 131.5t192 47.5q108 0 193 -47.5t134 -132t49 -195.5q0 -113 -49 -198t-134 -132t-193 -47t-192.5 47t-133.5 132t-49 198z M460 758q0 -92 51.5 -144.5t130.5 -52.5q80 0 131 52t51 145q0 85 -48 140.5t-132 55.5q-80 0 -132 -52t-52 -144zM746 986l175 206l113 117l160 -159l-118 -115l-205 -173zM750 524l124 126l202 -170l118 -114l-160 -159l-114 117z" />
<glyph unicode="&#xa5;" horiz-adv-x="1330" d="M-45 1516h353l414 -670h-94l410 670h328l-600 -985l68 240v-771h-333v776l67 -245zM180 268v194h974v-194h-974zM180 611v194h974v-194h-974z" />
<glyph unicode="&#xa6;" horiz-adv-x="566" d="M136 348h294v-799h-294v799zM136 856v799h294v-799h-294z" />
<glyph unicode="&#xa7;" horiz-adv-x="1135" d="M94 771q0 89 45 155.5t122 111.5l171 -113q-37 -35 -54 -68t-17 -69q0 -45 27.5 -76t95.5 -46l221 -43q142 -29 215.5 -98t73.5 -191q0 -164 -129.5 -260t-383.5 -96q-82 0 -170.5 11t-168.5 33v226q84 -23 168 -33t168 -10q85 0 133 13t67.5 38.5t19.5 58.5 q0 43 -23.5 65.5t-77.5 34.5l-220 43q-132 28 -207.5 103t-75.5 210zM134 1178q0 106 56 186t174 124.5t308 44.5q74 0 146.5 -6.5t134.5 -21.5v-226q-67 15 -129.5 22t-128.5 7q-106 0 -164 -16t-80 -42t-22 -55q0 -38 24 -61t78 -35l227 -41q137 -27 210 -100.5t73 -211.5 q0 -94 -48.5 -162.5t-130.5 -114.5l-178 118q49 37 69 68t20 70q0 48 -26.5 78.5t-96.5 44.5l-220 43q-143 30 -219.5 100.5t-76.5 186.5z" />
<glyph unicode="&#xa8;" horiz-adv-x="1167" d="M187 1453q0 78 46 122t131 44q86 0 131 -44t45 -122q0 -77 -45 -121t-131 -44q-85 0 -131 44t-46 121zM689 1453q0 78 45.5 122t130.5 44t130.5 -44t45.5 -122q0 -77 -45.5 -121t-130.5 -44t-130.5 44t-45.5 121z" />
<glyph unicode="&#xa9;" horiz-adv-x="1703" d="M86 758q0 234 95 409.5t268 273t403 97.5t402 -97.5t268 -273t96 -409.5t-96 -410t-268 -273.5t-402 -97.5t-403 97.5t-268 273t-95 410.5zM266 758q0 -186 70 -322.5t201.5 -210.5t314.5 -74t314 74t201.5 210t70.5 323q0 186 -70.5 322.5t-201.5 210.5t-314 74 t-314.5 -74t-201.5 -210.5t-70 -322.5zM475 751q0 200 121.5 310t332.5 110q56 0 103.5 -6t92.5 -18v-200q-46 10 -87.5 15.5t-87.5 5.5q-120 0 -178.5 -55t-58.5 -161t58 -161t164 -55q43 0 86.5 6.5t103.5 23.5v-199q-42 -16 -96.5 -25.5t-116.5 -9.5q-199 0 -318 108.5 t-119 310.5z" />
<glyph unicode="&#xaa;" horiz-adv-x="958" d="M40 869q0 132 90 202t295 81l198 13l36 -147l-190 -11q-71 -5 -101.5 -30.5t-30.5 -70.5q0 -48 29.5 -73t87.5 -25q31 0 63 10.5t58 33.5v329q0 47 -18 75.5t-63 42t-125 13.5q-57 0 -124 -9t-129 -27v220q73 19 155 29t156 10q156 0 255 -37.5t146.5 -123.5t47.5 -231 v-518h-251l-22 89h-14q-40 -55 -105 -81t-140 -26q-147 0 -225.5 74t-78.5 188z" />
<glyph unicode="&#xab;" horiz-adv-x="1253" d="M86 581l257 444h332l-257 -444l257 -445h-332zM620 581l257 444h332l-257 -444l257 -445h-332z" />
<glyph unicode="&#xac;" horiz-adv-x="1364" d="M120 653v250h1131v-700h-261v450h-870z" />
<glyph unicode="&#xad;" horiz-adv-x="930" d="M120 447v267h691v-267h-691z" />
<glyph unicode="&#xae;" horiz-adv-x="1472" d="M112 903q0 186 78.5 328.5t219.5 222.5t326 80t326 -80t220 -222t79 -329q0 -186 -79 -328t-220 -221.5t-326 -79.5t-326 79.5t-219.5 221.5t-78.5 328zM253 903q0 -151 59.5 -262.5t168.5 -172.5t255 -61t255 61t169 173t60 262q0 152 -60 264t-168.5 173.5t-255.5 61.5 q-146 0 -255 -61.5t-168.5 -173.5t-59.5 -264zM513 614v607h213q133 0 198.5 -51t65.5 -152q0 -100 -65 -150.5t-199 -50.5h-70l-4 -203h-139zM656 931h93q105 0 105 87q0 89 -105 89h-93v-176zM721 825l136 27l164 -238h-155z" />
<glyph unicode="&#xaf;" horiz-adv-x="1167" d="M251 1356v196h727v-196h-727z" />
<glyph unicode="&#xb0;" horiz-adv-x="994" d="M112 1154q0 111 49.5 197t137 135t199.5 49t198.5 -49t137 -135t50.5 -197t-50.5 -197t-137 -135t-198.5 -49t-199.5 49t-137 135t-49.5 197zM313 1154q0 -88 53 -139.5t132 -51.5t131 51.5t52 139.5q0 90 -53 140.5t-130 50.5q-78 0 -131.5 -50.5t-53.5 -140.5z" />
<glyph unicode="&#xb1;" horiz-adv-x="1126" d="M120 1v249h887v-249h-887zM120 688v249h313v305h260v-305h314v-249h-314v-305h-260v305h-313z" />
<glyph unicode="&#xb2;" horiz-adv-x="875" d="M71 1425v205q53 18 125.5 28t145.5 10q201 0 305 -71.5t104 -230.5q0 -79 -35.5 -155.5t-117.5 -173.5l-223 -261l-1 65h423v-210h-714v135l290 344q65 78 93 131t28 99q0 63 -43 94t-147 31q-61 0 -123.5 -11t-109.5 -29z" />
<glyph unicode="&#xb3;" horiz-adv-x="875" d="M70 652v190q66 -17 137 -27t132 -10q110 0 158 33t48 96q0 61 -44 93t-149 32h-177v190h149q98 0 140.5 31.5t42.5 86.5t-43 84.5t-139 29.5q-56 0 -121 -10t-118 -30v190q51 16 126 26.5t143 10.5q201 0 301 -72t100 -205q0 -91 -52 -153.5t-142 -83.5v10 q109 -16 168.5 -78.5t59.5 -167.5q0 -140 -109 -220.5t-330 -80.5q-73 0 -144.5 9t-136.5 26z" />
<glyph unicode="&#xb4;" horiz-adv-x="1167" d="M465 1263l231 392h346l-278 -392h-299z" />
<glyph unicode="&#xb5;" horiz-adv-x="1242" d="M113 -451v1570h326v-1570h-326zM278 419v227h161v-205q0 -101 42.5 -140t111.5 -39q34 0 71 10t71 30.5t60 50.5v767h325v-1120h-268l-23 113h-14q-49 -65 -113 -98.5t-136 -33.5q-85 0 -150 43.5t-101.5 139.5t-36.5 255z" />
<glyph unicode="&#xb6;" horiz-adv-x="1348" d="M75 986q0 285 118 416.5t366 131.5q75 0 149 -4.5t140 -13.5v-1516h-232v443q-25 -2 -47 -3t-49 -1q-222 0 -333.5 139.5t-111.5 407.5zM981 0v1516h231v-1516h-231z" />
<glyph unicode="&#xb7;" d="M73 572q0 93 56.5 146t155.5 53q98 0 155 -54t57 -145q0 -89 -58 -143t-154 -54t-154 53t-58 144z" />
<glyph unicode="&#xb8;" horiz-adv-x="1167" d="M425 -294q41 -17 88 -25t83 -8q51 0 77 17t26 55q0 75 -105 75h-47v200h156v-151l-72 47q118 0 178.5 -48.5t60.5 -135.5q0 -85 -64.5 -135t-195.5 -50q-51 0 -98.5 9t-86.5 23v127z" />
<glyph unicode="&#xb9;" horiz-adv-x="875" d="M134 631v210h681v-210h-681zM137 1236v227l305 196h168v-1001h-260v855l92 -81z" />
<glyph unicode="&#xba;" horiz-adv-x="1033" d="M47 1072q0 225 123.5 344t346.5 119t346.5 -120.5t123.5 -342.5q0 -148 -55.5 -252t-161 -158.5t-253.5 -54.5q-223 0 -346.5 120t-123.5 345zM349 1072q0 -92 21 -145t58.5 -75t88.5 -22t88.5 22t58 75t20.5 145t-20.5 144.5t-58 74t-88.5 21.5t-88.5 -21.5t-58.5 -74 t-21 -144.5z" />
<glyph unicode="&#xbb;" horiz-adv-x="1253" d="M45 136l257 445l-257 444h332l257 -444l-257 -445h-332zM579 136l257 445l-257 444h332l257 -444l-257 -445h-332z" />
<glyph unicode="&#xbc;" horiz-adv-x="2128" d="M134 631v210h681v-210h-681zM137 1236v227l305 196h168v-1001h-260v855l92 -81zM518 -139l823 1794h271l-823 -1794h-271zM1279 62v139l319 684h242l-318 -684l-22 56h605v-195h-826zM1752 -139v396l46 282h181v-678h-227z" />
<glyph unicode="&#xbd;" horiz-adv-x="2128" d="M134 631v210h681v-210h-681zM137 1236v227l305 196h168v-1001h-260v855l92 -81zM518 -139l823 1794h271l-823 -1794h-271zM1324 655v205q53 18 125.5 28t145.5 10q201 0 305.5 -71.5t103.5 -230.5q0 -79 -35.5 -155.5t-117.5 -173.5l-223 -261l-1 65h423v-210h-714v135 l290 344q65 78 93 131t28 99q0 63 -43 94t-147 31q-61 0 -123.5 -11t-109.5 -29z" />
<glyph unicode="&#xbe;" horiz-adv-x="2128" d="M70 652v190q66 -17 137 -27t132 -10q110 0 158 33t48 96q0 61 -44 93t-149 32h-177v190h149q98 0 140.5 31.5t42.5 86.5t-43 84.5t-139 29.5q-56 0 -121 -10t-118 -30v190q51 16 126 26.5t143 10.5q201 0 301 -72t100 -205q0 -91 -52 -153.5t-142 -83.5v10 q109 -16 168.5 -78.5t59.5 -167.5q0 -140 -109 -220.5t-330 -80.5q-73 0 -144.5 9t-136.5 26zM518 -139l823 1794h271l-823 -1794h-271zM1279 62v139l319 684h242l-318 -684l-22 56h605v-195h-826zM1752 -139v396l46 282h181v-678h-227z" />
<glyph unicode="&#xbf;" horiz-adv-x="1014" d="M52 -3q0 109 44 191t130 140.5t211 97.5l25 220h198l57 -376q-135 -29 -211 -64t-106 -80t-30 -101q0 -86 65.5 -133t207.5 -47q85 0 174 15t166 43v-256q-49 -17 -112.5 -29.5t-132 -20t-133.5 -7.5q-275 0 -414 106.5t-139 300.5zM349 949q0 84 58 136.5t154 52.5 t153.5 -51.5t57.5 -137.5q0 -87 -56.5 -138t-154.5 -51t-155 52.5t-57 136.5z" />
<glyph unicode="&#xc0;" horiz-adv-x="1491" d="M14 0l490 1516h484l490 -1516h-328l-424 1370h35l-423 -1370h-324zM354 404l72 266h639l71 -266h-782zM364 1944h344l185 -311h-295z" />
<glyph unicode="&#xc1;" horiz-adv-x="1491" d="M14 0l490 1516h484l490 -1516h-328l-424 1370h35l-423 -1370h-324zM354 404l72 266h639l71 -266h-782zM597 1633l185 311h343l-234 -311h-294z" />
<glyph unicode="&#xc2;" horiz-adv-x="1491" d="M14 0l490 1516h484l490 -1516h-328l-424 1370h35l-423 -1370h-324zM345 1633l261 311h279l261 -311h-248l-178 221h51l-178 -221h-248zM354 404l72 266h639l71 -266h-782z" />
<glyph unicode="&#xc3;" horiz-adv-x="1491" d="M14 0l490 1516h484l490 -1516h-328l-424 1370h35l-423 -1370h-324zM354 404l72 266h639l71 -266h-782zM359 1664v187q41 38 91 56.5t119 18.5q55 0 102.5 -13t91.5 -29q41 -14 81.5 -26t83.5 -12q62 0 109 18t94 54v-187q-40 -37 -89.5 -55t-119.5 -18q-54 0 -101.5 13 t-92.5 28q-40 14 -80.5 25.5t-84.5 11.5q-62 0 -109.5 -18t-94.5 -54z" />
<glyph unicode="&#xc4;" horiz-adv-x="1491" d="M14 0l490 1516h484l490 -1516h-328l-424 1370h35l-423 -1370h-324zM306 1793q0 70 44.5 109.5t131.5 39.5t131 -39.5t44 -109.5q0 -71 -44 -109.5t-131 -38.5t-131.5 38.5t-44.5 109.5zM354 404l72 266h639l71 -266h-782zM833 1793q0 70 44.5 109.5t131.5 39.5 t131.5 -39.5t44.5 -109.5q0 -71 -44.5 -109.5t-131.5 -38.5t-131.5 38.5t-44.5 109.5z" />
<glyph unicode="&#xc5;" horiz-adv-x="1491" d="M14 0l490 1516h484l490 -1516h-328l-424 1370h35l-423 -1370h-324zM354 404l72 266h639l71 -266h-782zM525 1834q0 93 62.5 154t157.5 61t158 -61t63 -154q0 -92 -63 -153t-158 -61t-157.5 61t-62.5 153zM650 1835q0 -46 26.5 -72.5t68.5 -26.5q43 0 69.5 26.5t26.5 72.5 t-26.5 72t-69.5 26q-42 0 -68.5 -26t-26.5 -72z" />
<glyph unicode="&#xc6;" horiz-adv-x="2054" d="M14 0l493 1516h535l-1 -267h-308l-392 -1249h-327zM356 404l72 266h626v-266h-698zM888 1516h1082v-267h-741l80 -983h671v-266h-979zM1115 642v266h751v-266h-751z" />
<glyph unicode="&#xc7;" horiz-adv-x="1266" d="M86 755q0 260 94 433.5t274.5 260t437.5 86.5q87 0 168 -8.5t158 -27.5v-274q-72 17 -146.5 26.5t-152.5 9.5q-164 0 -271 -51t-160.5 -161.5t-53.5 -289.5q0 -185 53 -295.5t158 -159.5t262 -49q78 0 155 13t156 35v-273q-73 -23 -161.5 -36t-180.5 -13 q-188 0 -335 44.5t-249 138t-154 240t-52 351.5zM538 -294q48 -17 98 -25t93 -8q59 0 91 16.5t32 55.5q0 40 -32 57.5t-93 17.5h-49v200h157v-151l-70 47q127 0 192.5 -47t65.5 -135q0 -86 -68.5 -136.5t-209.5 -50.5q-57 0 -109.5 9t-97.5 24v126z" />
<glyph unicode="&#xc8;" horiz-adv-x="1284" d="M136 0v1516h1064v-267h-735v-983h745v-266h-1074zM310 1944h344l185 -311h-295zM334 642v266h762v-266h-762z" />
<glyph unicode="&#xc9;" horiz-adv-x="1284" d="M136 0v1516h1064v-267h-735v-983h745v-266h-1074zM334 642v266h762v-266h-762zM543 1633l185 311h343l-234 -311h-294z" />
<glyph unicode="&#xca;" horiz-adv-x="1284" d="M136 0v1516h1064v-267h-735v-983h745v-266h-1074zM291 1633l261 311h279l261 -311h-248l-178 221h51l-178 -221h-248zM334 642v266h762v-266h-762z" />
<glyph unicode="&#xcb;" horiz-adv-x="1284" d="M136 0v1516h1064v-267h-735v-983h745v-266h-1074zM252 1793q0 70 44.5 109.5t131.5 39.5t131 -39.5t44 -109.5q0 -71 -44 -109.5t-131 -38.5t-131.5 38.5t-44.5 109.5zM334 642v266h762v-266h-762zM779 1793q0 70 44.5 109.5t131.5 39.5t131.5 -39.5t44.5 -109.5 q0 -71 -44.5 -109.5t-131.5 -38.5t-131.5 38.5t-44.5 109.5z" />
<glyph unicode="&#xcc;" horiz-adv-x="605" d="M-78 1944h344l185 -311h-295zM136 0v1516h333v-1516h-333z" />
<glyph unicode="&#xcd;" horiz-adv-x="605" d="M136 0v1516h333v-1516h-333zM155 1633l185 311h343l-234 -311h-294z" />
<glyph unicode="&#xce;" horiz-adv-x="605" d="M-97 1633l261 311h279l261 -311h-248l-178 221h51l-178 -221h-248zM136 0v1516h333v-1516h-333z" />
<glyph unicode="&#xcf;" horiz-adv-x="605" d="M-136 1793q0 70 44.5 109.5t131.5 39.5t131 -39.5t44 -109.5q0 -71 -44 -109.5t-131 -38.5t-131.5 38.5t-44.5 109.5zM136 0v1516h333v-1516h-333zM391 1793q0 70 44.5 109.5t131.5 39.5t131.5 -39.5t44.5 -109.5q0 -71 -44.5 -109.5t-131.5 -38.5t-131.5 38.5 t-44.5 109.5z" />
<glyph unicode="&#xd0;" horiz-adv-x="1536" d="M3 674v213h747v-213h-747zM136 9v1473q71 15 151.5 26.5t164.5 17.5t164 6q413 0 623.5 -188t210.5 -586q0 -271 -99.5 -442t-299 -251t-499.5 -80q-63 0 -133 2.5t-141.5 7.5t-141.5 14zM469 262q42 -4 83.5 -5.5t85.5 -1.5q158 0 263 49.5t156.5 161t51.5 293.5 q0 181 -52.5 292t-157 162t-259.5 51q-39 0 -85 -4.5t-86 -11.5v-986z" />
<glyph unicode="&#xd1;" horiz-adv-x="1580" d="M136 0v1516h334l718 -1103h-58v1103h314v-1516h-335l-717 1103h58v-1103h-314zM404 1664v187q41 38 91 56.5t119 18.5q55 0 102.5 -13t91.5 -29q41 -14 81.5 -26t83.5 -12q62 0 109 18t94 54v-187q-40 -37 -89.5 -55t-119.5 -18q-54 0 -101.5 13t-92.5 28 q-40 14 -80.5 25.5t-84.5 11.5q-62 0 -109.5 -18t-94.5 -54z" />
<glyph unicode="&#xd2;" horiz-adv-x="1599" d="M86 758q0 264 88.5 436.5t249 256.5t376.5 84t376 -84.5t248.5 -257t88.5 -435.5t-88.5 -435.5t-249 -257t-375.5 -84.5q-216 0 -376.5 83.5t-249 256.5t-88.5 437zM418 1944h344l185 -311h-295zM427 765q0 -187 44.5 -300.5t128 -164.5t200.5 -51t200 50.5t127.5 161 t44.5 290.5q0 186 -45 299t-128.5 165t-198.5 52q-116 0 -199.5 -50.5t-128.5 -161t-45 -290.5z" />
<glyph unicode="&#xd3;" horiz-adv-x="1599" d="M86 758q0 264 88.5 436.5t249 256.5t376.5 84t376 -84.5t248.5 -257t88.5 -435.5t-88.5 -435.5t-249 -257t-375.5 -84.5q-216 0 -376.5 83.5t-249 256.5t-88.5 437zM427 765q0 -187 44.5 -300.5t128 -164.5t200.5 -51t200 50.5t127.5 161t44.5 290.5q0 186 -45 299 t-128.5 165t-198.5 52q-116 0 -199.5 -50.5t-128.5 -161t-45 -290.5zM651 1633l185 311h343l-234 -311h-294z" />
<glyph unicode="&#xd4;" horiz-adv-x="1599" d="M86 758q0 264 88.5 436.5t249 256.5t376.5 84t376 -84.5t248.5 -257t88.5 -435.5t-88.5 -435.5t-249 -257t-375.5 -84.5q-216 0 -376.5 83.5t-249 256.5t-88.5 437zM399 1633l261 311h279l261 -311h-248l-178 221h51l-178 -221h-248zM427 765q0 -187 44.5 -300.5 t128 -164.5t200.5 -51t200 50.5t127.5 161t44.5 290.5q0 186 -45 299t-128.5 165t-198.5 52q-116 0 -199.5 -50.5t-128.5 -161t-45 -290.5z" />
<glyph unicode="&#xd5;" horiz-adv-x="1599" d="M86 758q0 264 88.5 436.5t249 256.5t376.5 84t376 -84.5t248.5 -257t88.5 -435.5t-88.5 -435.5t-249 -257t-375.5 -84.5q-216 0 -376.5 83.5t-249 256.5t-88.5 437zM413 1664v187q41 38 91 56.5t119 18.5q55 0 102.5 -13t91.5 -29q41 -14 81.5 -26t83.5 -12q62 0 109 18 t94 54v-187q-40 -37 -89.5 -55t-119.5 -18q-54 0 -101.5 13t-92.5 28q-40 14 -80.5 25.5t-84.5 11.5q-62 0 -109.5 -18t-94.5 -54zM427 765q0 -187 44.5 -300.5t128 -164.5t200.5 -51t200 50.5t127.5 161t44.5 290.5q0 186 -45 299t-128.5 165t-198.5 52 q-116 0 -199.5 -50.5t-128.5 -161t-45 -290.5z" />
<glyph unicode="&#xd6;" horiz-adv-x="1599" d="M86 758q0 264 88.5 436.5t249 256.5t376.5 84t376 -84.5t248.5 -257t88.5 -435.5t-88.5 -435.5t-249 -257t-375.5 -84.5q-216 0 -376.5 83.5t-249 256.5t-88.5 437zM360 1793q0 70 44.5 109.5t131.5 39.5t131 -39.5t44 -109.5q0 -71 -44 -109.5t-131 -38.5t-131.5 38.5 t-44.5 109.5zM427 765q0 -187 44.5 -300.5t128 -164.5t200.5 -51t200 50.5t127.5 161t44.5 290.5q0 186 -45 299t-128.5 165t-198.5 52q-116 0 -199.5 -50.5t-128.5 -161t-45 -290.5zM887 1793q0 70 44.5 109.5t131.5 39.5t131.5 -39.5t44.5 -109.5q0 -71 -44.5 -109.5 t-131.5 -38.5t-131.5 38.5t-44.5 109.5z" />
<glyph unicode="&#xd7;" horiz-adv-x="1065" d="M89 510l268 268l-268 269l176 175l267 -268l269 268l176 -175l-268 -269l268 -268l-176 -175l-269 267l-267 -267z" />
<glyph unicode="&#xd8;" horiz-adv-x="1599" d="M86 758q0 264 88.5 436.5t249 256.5t376.5 84t376 -84.5t248.5 -257t88.5 -435.5t-88.5 -435.5t-249 -257t-375.5 -84.5q-216 0 -376.5 83.5t-249 256.5t-88.5 437zM96 -2l1180 1519h224l-1181 -1519h-223zM427 765q0 -187 44.5 -300.5t128 -164.5t200.5 -51t200 50.5 t127.5 161t44.5 290.5q0 186 -45 299t-128.5 165t-198.5 52q-116 0 -199.5 -50.5t-128.5 -161t-45 -290.5z" />
<glyph unicode="&#xd9;" horiz-adv-x="1530" d="M130 628v888h332v-921q0 -180 76.5 -261t230.5 -81t230 81t76 261v921h326v-888q0 -218 -66.5 -362t-207 -214.5t-358.5 -70.5q-221 0 -362.5 70.5t-209 214.5t-67.5 362zM388 1944h344l185 -311h-295z" />
<glyph unicode="&#xda;" horiz-adv-x="1530" d="M130 628v888h332v-921q0 -180 76.5 -261t230.5 -81t230 81t76 261v921h326v-888q0 -218 -66.5 -362t-207 -214.5t-358.5 -70.5q-221 0 -362.5 70.5t-209 214.5t-67.5 362zM621 1633l185 311h343l-234 -311h-294z" />
<glyph unicode="&#xdb;" horiz-adv-x="1530" d="M130 628v888h332v-921q0 -180 76.5 -261t230.5 -81t230 81t76 261v921h326v-888q0 -218 -66.5 -362t-207 -214.5t-358.5 -70.5q-221 0 -362.5 70.5t-209 214.5t-67.5 362zM369 1633l261 311h279l261 -311h-248l-178 221h51l-178 -221h-248z" />
<glyph unicode="&#xdc;" horiz-adv-x="1530" d="M130 628v888h332v-921q0 -180 76.5 -261t230.5 -81t230 81t76 261v921h326v-888q0 -218 -66.5 -362t-207 -214.5t-358.5 -70.5q-221 0 -362.5 70.5t-209 214.5t-67.5 362zM330 1793q0 70 44.5 109.5t131.5 39.5t131 -39.5t44 -109.5q0 -71 -44 -109.5t-131 -38.5 t-131.5 38.5t-44.5 109.5zM857 1793q0 70 44.5 109.5t131.5 39.5t131.5 -39.5t44.5 -109.5q0 -71 -44.5 -109.5t-131.5 -38.5t-131.5 38.5t-44.5 109.5z" />
<glyph unicode="&#xdd;" horiz-adv-x="1315" d="M-53 1516h353l415 -670h-94l409 670h328l-599 -985l67 240v-771h-332v776l67 -245zM510 1633l185 311h343l-234 -311h-294z" />
<glyph unicode="&#xde;" horiz-adv-x="1358" d="M136 0v1516h333v-198q29 3 64 5.5t72 2.5q332 0 500.5 -131.5t168.5 -416.5q0 -270 -165 -408.5t-491 -138.5q-40 0 -75.5 1.5t-73.5 4.5v-237h-333zM469 489q38 -4 73 -6t78 -2q171 0 250.5 69.5t79.5 225.5q0 158 -79 229t-245 71q-46 0 -83 -3t-74 -9v-575z" />
<glyph unicode="&#xdf;" horiz-adv-x="1604" d="M26 858v262h306v-262h-306zM208 0v1065q0 194 76 330t220.5 208t348.5 72q165 0 291.5 -56t198 -175t71.5 -307q0 -66 -9.5 -128t-25.5 -118q-34 4 -73 6.5t-86 2.5q-100 0 -154.5 -16t-75 -41.5t-20.5 -55.5q0 -36 22.5 -58t77.5 -35l182 -32q150 -28 226 -102.5 t76 -220.5q0 -167 -132.5 -264t-386.5 -97q-80 0 -169.5 11t-169.5 33v238q50 -13 107.5 -23t116 -15t111.5 -5q126 0 173 29t47 82q0 42 -22.5 63.5t-78.5 32.5l-181 33q-159 30 -230.5 109.5t-71.5 212.5q0 162 127.5 255.5t380.5 93.5q20 0 50 -0.5t61 -2t52 -4.5 l-182 -145q11 45 18.5 91.5t7.5 93.5q0 104 -39 168t-107.5 92.5t-157.5 28.5q-116 0 -192.5 -41t-114 -125.5t-37.5 -215.5v-1068h-326z" />
<glyph unicode="&#xe0;" horiz-adv-x="1143" d="M65 303q0 159 110 248t355 105l236 20l35 -180l-238 -20q-94 -7 -135.5 -43t-41.5 -98q0 -61 38 -94.5t111 -33.5q45 0 92 16t86 55v409q0 77 -25 121t-81 63t-149 19q-65 0 -147 -11t-156 -34v246q82 24 179.5 35.5t181.5 11.5q178 0 292.5 -44t168.5 -147t54 -280v-667 h-268l-23 112h-15q-50 -69 -128 -100.5t-169 -31.5q-172 0 -267.5 89.5t-95.5 233.5zM140 1655h346l232 -392h-299z" />
<glyph unicode="&#xe1;" horiz-adv-x="1143" d="M65 303q0 159 110 248t355 105l236 20l35 -180l-238 -20q-94 -7 -135.5 -43t-41.5 -98q0 -61 38 -94.5t111 -33.5q45 0 92 16t86 55v409q0 77 -25 121t-81 63t-149 19q-65 0 -147 -11t-156 -34v246q82 24 179.5 35.5t181.5 11.5q178 0 292.5 -44t168.5 -147t54 -280v-667 h-268l-23 112h-15q-50 -69 -128 -100.5t-169 -31.5q-172 0 -267.5 89.5t-95.5 233.5zM419 1263l231 392h346l-278 -392h-299z" />
<glyph unicode="&#xe2;" horiz-adv-x="1143" d="M65 303q0 159 110 248t355 105l236 20l35 -180l-238 -20q-94 -7 -135.5 -43t-41.5 -98q0 -61 38 -94.5t111 -33.5q45 0 92 16t86 55v409q0 77 -25 121t-81 63t-149 19q-65 0 -147 -11t-156 -34v246q82 24 179.5 35.5t181.5 11.5q178 0 292.5 -44t168.5 -147t54 -280v-667 h-268l-23 112h-15q-50 -69 -128 -100.5t-169 -31.5q-172 0 -267.5 89.5t-95.5 233.5zM197 1263l237 392h269l237 -392h-233l-163 282h49l-163 -282h-233z" />
<glyph unicode="&#xe3;" horiz-adv-x="1143" d="M65 303q0 159 110 248t355 105l236 20l35 -180l-238 -20q-94 -7 -135.5 -43t-41.5 -98q0 -61 38 -94.5t111 -33.5q45 0 92 16t86 55v409q0 77 -25 121t-81 63t-149 19q-65 0 -147 -11t-156 -34v246q82 24 179.5 35.5t181.5 11.5q178 0 292.5 -44t168.5 -147t54 -280v-667 h-268l-23 112h-15q-50 -69 -128 -100.5t-169 -31.5q-172 0 -267.5 89.5t-95.5 233.5zM205 1323v205q78 79 202 79q50 0 94 -16t85 -35q38 -16 74.5 -30t74.5 -14q58 0 104.5 21t92.5 66v-204q-78 -79 -202 -79q-49 0 -93.5 16.5t-85.5 33.5q-38 17 -75 30.5t-75 13.5 q-57 0 -103 -20.5t-93 -66.5z" />
<glyph unicode="&#xe4;" horiz-adv-x="1143" d="M65 303q0 159 110 248t355 105l236 20l35 -180l-238 -20q-94 -7 -135.5 -43t-41.5 -98q0 -61 38 -94.5t111 -33.5q45 0 92 16t86 55v409q0 77 -25 121t-81 63t-149 19q-65 0 -147 -11t-156 -34v246q82 24 179.5 35.5t181.5 11.5q178 0 292.5 -44t168.5 -147t54 -280v-667 h-268l-23 112h-15q-50 -69 -128 -100.5t-169 -31.5q-172 0 -267.5 89.5t-95.5 233.5zM141 1453q0 78 46 122t131 44q86 0 131 -44t45 -122q0 -77 -45 -121t-131 -44q-85 0 -131 44t-46 121zM643 1453q0 78 45.5 122t130.5 44t130.5 -44t45.5 -122q0 -77 -45.5 -121 t-130.5 -44t-130.5 44t-45.5 121z" />
<glyph unicode="&#xe5;" horiz-adv-x="1143" d="M65 303q0 159 110 248t355 105l236 20l35 -180l-238 -20q-94 -7 -135.5 -43t-41.5 -98q0 -61 38 -94.5t111 -33.5q45 0 92 16t86 55v409q0 77 -25 121t-81 63t-149 19q-65 0 -147 -11t-156 -34v246q82 24 179.5 35.5t181.5 11.5q178 0 292.5 -44t168.5 -147t54 -280v-667 h-268l-23 112h-15q-50 -69 -128 -100.5t-169 -31.5q-172 0 -267.5 89.5t-95.5 233.5zM348 1471q0 93 62.5 154t157.5 61t158 -60.5t63 -154.5q0 -93 -63 -153.5t-158 -60.5t-157.5 60.5t-62.5 153.5zM473 1471q0 -45 26.5 -72t68.5 -27q43 0 69.5 27t26.5 72q0 46 -26.5 73 t-69.5 27q-42 0 -68.5 -26.5t-26.5 -73.5z" />
<glyph unicode="&#xe6;" horiz-adv-x="1762" d="M65 306q0 103 48.5 181.5t153.5 122t274 43.5h235v-181h-204q-69 0 -109.5 -18t-58.5 -49t-18 -72q0 -60 39 -93t113 -33q61 0 119 25.5t111 93.5l93 -152q-86 -110 -189 -152t-215 -42q-128 0 -215.5 40t-132 113.5t-44.5 172.5zM155 845v246q88 25 177 36t171 11 q166 0 272 -46t156.5 -148t50.5 -268v-121l-266 6v125q0 78 -26.5 122.5t-84 63t-148.5 18.5q-63 0 -145 -11t-157 -34zM716 561l50 25q0 173 56 296.5t160.5 190t252.5 66.5q147 0 252 -66t160.5 -197.5t55.5 -324.5v-85h-729v187h478l-52 -21q0 113 -20.5 178.5 t-61.5 93.5t-100 28q-60 0 -102 -28t-63.5 -93.5t-21.5 -175.5v-131q0 -103 30.5 -164t102 -88t196.5 -27q66 0 137.5 10t143.5 26v-245q-89 -20 -168.5 -29t-156.5 -9q-208 0 -340.5 60.5t-196 189.5t-63.5 333z" />
<glyph unicode="&#xe7;" horiz-adv-x="984" d="M71 558q0 198 72 326.5t209.5 191t333.5 62.5q68 0 131 -6.5t119 -19.5v-258q-53 10 -103.5 15t-101.5 5q-113 0 -184.5 -31.5t-105 -100.5t-33.5 -181q0 -116 33 -186t98.5 -101.5t163.5 -31.5q53 0 107.5 9t125.5 29v-258q-61 -20 -134 -32t-150 -12 q-187 0 -316.5 63.5t-197 192t-67.5 324.5zM377 -294q41 -17 88 -25t83 -8q51 0 77 17t26 55q0 75 -105 75h-47v200h156v-151l-72 47q118 0 178.5 -48.5t60.5 -135.5q0 -85 -64.5 -135t-195.5 -50q-51 0 -98.5 9t-86.5 23v127z" />
<glyph unicode="&#xe8;" horiz-adv-x="1135" d="M71 561q0 185 61 314.5t177 196t282 66.5q159 0 267.5 -67t163.5 -198.5t55 -321.5v-85h-820v187h568l-52 -19q0 111 -20.5 176.5t-62 93t-102.5 27.5q-62 0 -105 -27.5t-65 -93t-22 -175.5v-131q0 -103 30.5 -164t103.5 -88t202 -27q66 0 138 10t145 26v-245 q-89 -20 -169.5 -29t-159.5 -9q-211 0 -347 60.5t-202 189.5t-66 333zM156 1655h346l232 -392h-299z" />
<glyph unicode="&#xe9;" horiz-adv-x="1135" d="M71 561q0 185 61 314.5t177 196t282 66.5q159 0 267.5 -67t163.5 -198.5t55 -321.5v-85h-820v187h568l-52 -19q0 111 -20.5 176.5t-62 93t-102.5 27.5q-62 0 -105 -27.5t-65 -93t-22 -175.5v-131q0 -103 30.5 -164t103.5 -88t202 -27q66 0 138 10t145 26v-245 q-89 -20 -169.5 -29t-159.5 -9q-211 0 -347 60.5t-202 189.5t-66 333zM435 1263l231 392h346l-278 -392h-299z" />
<glyph unicode="&#xea;" horiz-adv-x="1135" d="M71 561q0 185 61 314.5t177 196t282 66.5q159 0 267.5 -67t163.5 -198.5t55 -321.5v-85h-820v187h568l-52 -19q0 111 -20.5 176.5t-62 93t-102.5 27.5q-62 0 -105 -27.5t-65 -93t-22 -175.5v-131q0 -103 30.5 -164t103.5 -88t202 -27q66 0 138 10t145 26v-245 q-89 -20 -169.5 -29t-159.5 -9q-211 0 -347 60.5t-202 189.5t-66 333zM213 1263l237 392h269l237 -392h-233l-163 282h49l-163 -282h-233z" />
<glyph unicode="&#xeb;" horiz-adv-x="1135" d="M71 561q0 185 61 314.5t177 196t282 66.5q159 0 267.5 -67t163.5 -198.5t55 -321.5v-85h-820v187h568l-52 -19q0 111 -20.5 176.5t-62 93t-102.5 27.5q-62 0 -105 -27.5t-65 -93t-22 -175.5v-131q0 -103 30.5 -164t103.5 -88t202 -27q66 0 138 10t145 26v-245 q-89 -20 -169.5 -29t-159.5 -9q-211 0 -347 60.5t-202 189.5t-66 333zM157 1453q0 78 46 122t131 44q86 0 131 -44t45 -122q0 -77 -45 -121t-131 -44q-85 0 -131 44t-46 121zM659 1453q0 78 45.5 122t130.5 44t130.5 -44t45.5 -122q0 -77 -45.5 -121t-130.5 -44t-130.5 44 t-45.5 121z" />
<glyph unicode="&#xec;" horiz-adv-x="570" d="M-144 1655h346l232 -392h-299zM122 0v1120h327v-1120h-327z" />
<glyph unicode="&#xed;" horiz-adv-x="570" d="M122 0v1120h327v-1120h-327zM135 1263l231 392h346l-278 -392h-299z" />
<glyph unicode="&#xee;" horiz-adv-x="570" d="M-87 1263l237 392h269l237 -392h-233l-163 282h49l-163 -282h-233zM122 0v1120h327v-1120h-327z" />
<glyph unicode="&#xef;" horiz-adv-x="570" d="M-143 1453q0 78 46 122t131 44q86 0 131 -44t45 -122q0 -77 -45 -121t-131 -44q-85 0 -131 44t-46 121zM122 0v1120h327v-1120h-327zM359 1453q0 78 45.5 122t130.5 44t130.5 -44t45.5 -122q0 -77 -45.5 -121t-130.5 -44t-130.5 44t-45.5 121z" />
<glyph unicode="&#xf0;" horiz-adv-x="1232" d="M71 557q0 197 65 324t181 188t270 61q91 0 174.5 -37.5t137.5 -128.5l-106 -7q-37 127 -114.5 250.5t-186.5 237t-242 210.5h385q112 -84 208 -201.5t168 -254.5t112 -285t40 -293q0 -223 -65.5 -365.5t-188 -210.5t-292.5 -68q-169 0 -291 64t-188.5 193.5t-66.5 322.5z M156 1390l941 168l35 -178l-941 -169zM399 557q0 -127 26 -199t73.5 -103t118.5 -31q69 0 117 31.5t74 103.5t26 195q0 128 -26 201.5t-74.5 104t-117.5 30.5t-117 -30.5t-74 -103t-26 -199.5z" />
<glyph unicode="&#xf1;" horiz-adv-x="1251" d="M122 0v1120h269l22 -113h15q62 63 146 97t183 34q111 0 197 -43.5t135.5 -140.5t49.5 -256v-698h-327v678q0 101 -42 140t-116 39q-37 0 -74 -9.5t-71.5 -30t-61.5 -51.5v-766h-325zM267 1323v205q78 79 202 79q50 0 94 -16t85 -35q38 -16 74.5 -30t74.5 -14 q58 0 104.5 21t92.5 66v-204q-78 -79 -202 -79q-49 0 -93.5 16.5t-85.5 33.5q-38 17 -75 30.5t-75 13.5q-57 0 -103 -20.5t-93 -66.5z" />
<glyph unicode="&#xf2;" horiz-adv-x="1232" d="M71 557q0 196 65 325t187 192.5t293 63.5t293.5 -64t187.5 -192.5t65 -322.5q0 -195 -66.5 -324t-189 -193t-290.5 -64t-290 64t-188.5 193t-66.5 322zM188 1655h346l232 -392h-299zM399 560q0 -129 26 -201.5t74 -102.5t117 -30t117.5 30t74.5 102t26 198 q0 129 -26 201.5t-74.5 103t-117.5 30.5t-117 -30t-74 -102t-26 -199z" />
<glyph unicode="&#xf3;" horiz-adv-x="1232" d="M71 557q0 196 65 325t187 192.5t293 63.5t293.5 -64t187.5 -192.5t65 -322.5q0 -195 -66.5 -324t-189 -193t-290.5 -64t-290 64t-188.5 193t-66.5 322zM399 560q0 -129 26 -201.5t74 -102.5t117 -30t117.5 30t74.5 102t26 198q0 129 -26 201.5t-74.5 103t-117.5 30.5 t-117 -30t-74 -102t-26 -199zM467 1263l231 392h346l-278 -392h-299z" />
<glyph unicode="&#xf4;" horiz-adv-x="1232" d="M71 557q0 196 65 325t187 192.5t293 63.5t293.5 -64t187.5 -192.5t65 -322.5q0 -195 -66.5 -324t-189 -193t-290.5 -64t-290 64t-188.5 193t-66.5 322zM245 1263l237 392h269l237 -392h-233l-163 282h49l-163 -282h-233zM399 560q0 -129 26 -201.5t74 -102.5t117 -30 t117.5 30t74.5 102t26 198q0 129 -26 201.5t-74.5 103t-117.5 30.5t-117 -30t-74 -102t-26 -199z" />
<glyph unicode="&#xf5;" horiz-adv-x="1232" d="M71 557q0 196 65 325t187 192.5t293 63.5t293.5 -64t187.5 -192.5t65 -322.5q0 -195 -66.5 -324t-189 -193t-290.5 -64t-290 64t-188.5 193t-66.5 322zM253 1323v205q78 79 202 79q50 0 94 -16t85 -35q38 -16 74.5 -30t74.5 -14q58 0 104.5 21t92.5 66v-204 q-78 -79 -202 -79q-49 0 -93.5 16.5t-85.5 33.5q-38 17 -75 30.5t-75 13.5q-57 0 -103 -20.5t-93 -66.5zM399 560q0 -129 26 -201.5t74 -102.5t117 -30t117.5 30t74.5 102t26 198q0 129 -26 201.5t-74.5 103t-117.5 30.5t-117 -30t-74 -102t-26 -199z" />
<glyph unicode="&#xf6;" horiz-adv-x="1232" d="M71 557q0 196 65 325t187 192.5t293 63.5t293.5 -64t187.5 -192.5t65 -322.5q0 -195 -66.5 -324t-189 -193t-290.5 -64t-290 64t-188.5 193t-66.5 322zM189 1453q0 78 46 122t131 44q86 0 131 -44t45 -122q0 -77 -45 -121t-131 -44q-85 0 -131 44t-46 121zM399 560 q0 -129 26 -201.5t74 -102.5t117 -30t117.5 30t74.5 102t26 198q0 129 -26 201.5t-74.5 103t-117.5 30.5t-117 -30t-74 -102t-26 -199zM691 1453q0 78 45.5 122t130.5 44t130.5 -44t45.5 -122q0 -77 -45.5 -121t-130.5 -44t-130.5 44t-45.5 121z" />
<glyph unicode="&#xf7;" horiz-adv-x="1126" d="M120 653v250h887v-250h-887zM371 365q0 84 51.5 132t140.5 48q90 0 141.5 -49.5t51.5 -130.5t-52.5 -131t-140.5 -50q-87 0 -139.5 48.5t-52.5 132.5zM371 1192q0 84 51.5 132t140.5 48q90 0 141.5 -49t51.5 -131q0 -81 -52.5 -130.5t-140.5 -49.5q-87 0 -139.5 48 t-52.5 132z" />
<glyph unicode="&#xf8;" horiz-adv-x="1232" d="M71 557q0 196 65 325t187 192.5t293 63.5q78 0 145.5 -15t124.5 -46l43 60h205l-111 -154q68 -72 103.5 -178.5t35.5 -245.5q0 -195 -66.5 -324t-189 -193t-290.5 -64q-79 0 -147.5 15.5t-125.5 48.5l-41 -58h-206l112 154q-66 73 -101.5 177.5t-35.5 241.5zM390 560 q0 -50 6.5 -89t19.5 -68l323 451q-24 22 -55 31.5t-68 9.5q-71 0 -122 -30t-77.5 -103.5t-26.5 -201.5zM490 266q25 -24 56.5 -34.5t69.5 -10.5q72 0 123 30.5t77.5 103.5t26.5 201q0 53 -7 94t-20 71z" />
<glyph unicode="&#xf9;" horiz-adv-x="1242" d="M113 419v701h326v-679q0 -101 42.5 -140t111.5 -39q34 0 71 10t71 30.5t60 50.5v767h325v-1120h-268l-23 113h-14q-63 -65 -144 -98.5t-172 -33.5q-112 0 -199 43.5t-137 139.5t-50 255zM189 1655h346l232 -392h-299z" />
<glyph unicode="&#xfa;" horiz-adv-x="1242" d="M113 419v701h326v-679q0 -101 42.5 -140t111.5 -39q34 0 71 10t71 30.5t60 50.5v767h325v-1120h-268l-23 113h-14q-63 -65 -144 -98.5t-172 -33.5q-112 0 -199 43.5t-137 139.5t-50 255zM468 1263l231 392h346l-278 -392h-299z" />
<glyph unicode="&#xfb;" horiz-adv-x="1242" d="M113 419v701h326v-679q0 -101 42.5 -140t111.5 -39q34 0 71 10t71 30.5t60 50.5v767h325v-1120h-268l-23 113h-14q-63 -65 -144 -98.5t-172 -33.5q-112 0 -199 43.5t-137 139.5t-50 255zM246 1263l237 392h269l237 -392h-233l-163 282h49l-163 -282h-233z" />
<glyph unicode="&#xfc;" horiz-adv-x="1242" d="M113 419v701h326v-679q0 -101 42.5 -140t111.5 -39q34 0 71 10t71 30.5t60 50.5v767h325v-1120h-268l-23 113h-14q-63 -65 -144 -98.5t-172 -33.5q-112 0 -199 43.5t-137 139.5t-50 255zM190 1453q0 78 46 122t131 44q86 0 131 -44t45 -122q0 -77 -45 -121t-131 -44 q-85 0 -131 44t-46 121zM692 1453q0 78 45.5 122t130.5 44t130.5 -44t45.5 -122q0 -77 -45.5 -121t-130.5 -44t-130.5 44t-45.5 121z" />
<glyph unicode="&#xfd;" horiz-adv-x="1193" d="M-1 1120h341l355 -1120h-303zM322 -451l160 451l113 258l278 862h322l-553 -1571h-320zM448 1263l231 392h346l-278 -392h-299z" />
<glyph unicode="&#xfe;" horiz-adv-x="1259" d="M122 -451v2106h325v-644h17q49 60 121.5 93.5t168.5 33.5q118 0 216.5 -57.5t158 -180.5t59.5 -318q0 -196 -69 -330t-205 -203t-336 -69q-34 0 -67.5 2.5t-63.5 5.5v-439h-325zM447 241q28 -5 63 -9.5t68 -4.5q141 0 211.5 76t70.5 253q0 123 -29 191t-81 95.5 t-120 27.5q-49 0 -98.5 -16.5t-84.5 -54.5v-558z" />
<glyph unicode="&#xff;" horiz-adv-x="1193" d="M-1 1120h341l355 -1120h-303zM170 1453q0 78 46 122t131 44q86 0 131 -44t45 -122q0 -77 -45 -121t-131 -44q-85 0 -131 44t-46 121zM322 -451l160 451l113 258l278 862h322l-553 -1571h-320zM672 1453q0 78 45.5 122t130.5 44t130.5 -44t45.5 -122q0 -77 -45.5 -121 t-130.5 -44t-130.5 44t-45.5 121z" />
<glyph unicode="&#x152;" horiz-adv-x="2164" d="M86 758q0 265 99 435.5t291 253t470 82.5q82 0 166 -6.5t161 -6.5h808v-267h-703v-983h713v-266h-814q-50 0 -106 -3t-112 -5.5t-107 -2.5q-291 0 -482.5 80.5t-287.5 250t-96 438.5zM426 757q0 -180 51.5 -290t154 -159t253.5 -49q44 0 85 1t80 4v986q-43 4 -84 5.5 t-84 1.5q-151 0 -252.5 -50t-152.5 -160.5t-51 -289.5zM1249 642v266h727v-266h-727z" />
<glyph unicode="&#x153;" horiz-adv-x="1889" d="M71 557q0 196 64.5 325t183 192.5t282.5 63.5q167 0 277.5 -69t166 -198.5t55.5 -311.5q0 -184 -57 -314t-168 -198.5t-274 -68.5q-160 0 -279 64t-185 193t-66 322zM399 560q0 -129 26 -201.5t73.5 -102.5t116.5 -30t117 30t73.5 102t25.5 198q0 129 -25.5 201.5 t-74 103t-116.5 30.5t-116 -30t-74 -102t-26 -199zM865 561l28 25q0 169 56 293.5t161 192t253 67.5q147 0 251.5 -66t160.5 -197.5t56 -324.5v-85h-729v187h478l-52 -21q0 113 -21 178.5t-61.5 93.5t-99.5 28q-60 0 -102.5 -28t-63.5 -93.5t-21 -175.5v-131q0 -103 30 -164 t101.5 -88t197.5 -27q65 0 137 10t144 26v-245q-89 -20 -168.5 -29t-157.5 -9q-207 0 -334.5 62.5t-185.5 191.5t-58 329z" />
<glyph unicode="&#x178;" horiz-adv-x="1315" d="M-53 1516h353l415 -670h-94l409 670h328l-599 -985l67 240v-771h-332v776l67 -245zM219 1793q0 70 44.5 109.5t131.5 39.5t131 -39.5t44 -109.5q0 -71 -44 -109.5t-131 -38.5t-131.5 38.5t-44.5 109.5zM746 1793q0 70 44.5 109.5t131.5 39.5t131.5 -39.5t44.5 -109.5 q0 -71 -44.5 -109.5t-131.5 -38.5t-131.5 38.5t-44.5 109.5z" />
<glyph unicode="&#x2c6;" horiz-adv-x="1167" d="M243 1263l237 392h269l237 -392h-233l-163 282h49l-163 -282h-233z" />
<glyph unicode="&#x2dc;" horiz-adv-x="1167" d="M251 1323v205q78 79 202 79q50 0 94 -16t85 -35q38 -16 74.5 -30t74.5 -14q58 0 104.5 21t92.5 66v-204q-78 -79 -202 -79q-49 0 -93.5 16.5t-85.5 33.5q-38 17 -75 30.5t-75 13.5q-57 0 -103 -20.5t-93 -66.5z" />
<glyph unicode="&#x2000;" horiz-adv-x="1024" />
<glyph unicode="&#x2001;" horiz-adv-x="2049" />
<glyph unicode="&#x2002;" horiz-adv-x="1024" />
<glyph unicode="&#x2003;" horiz-adv-x="2049" />
<glyph unicode="&#x2004;" horiz-adv-x="683" />
<glyph unicode="&#x2005;" horiz-adv-x="512" />
<glyph unicode="&#x2006;" horiz-adv-x="341" />
<glyph unicode="&#x2007;" horiz-adv-x="341" />
<glyph unicode="&#x2008;" horiz-adv-x="256" />
<glyph unicode="&#x2009;" horiz-adv-x="409" />
<glyph unicode="&#x200a;" horiz-adv-x="113" />
<glyph unicode="&#x2010;" horiz-adv-x="930" d="M120 447v267h691v-267h-691z" />
<glyph unicode="&#x2011;" horiz-adv-x="930" d="M120 447v267h691v-267h-691z" />
<glyph unicode="&#x2012;" horiz-adv-x="930" d="M120 447v267h691v-267h-691z" />
<glyph unicode="&#x2013;" horiz-adv-x="921" d="M0 467v227h922v-227h-922z" />
<glyph unicode="&#x2014;" horiz-adv-x="1843" d="M0 467v227h1843v-227h-1843z" />
<glyph unicode="&#x2018;" d="M75 1184q0 125 44 249.5t115 221.5h187q-50 -109 -78.5 -202t-28.5 -189l-70 58h41q95 0 153.5 -53.5t58.5 -145.5q0 -93 -55 -145t-145 -52q-110 0 -166 64t-56 194z" />
<glyph unicode="&#x2019;" d="M73 1475q0 93 56 145t151 52q105 0 160 -64.5t55 -193.5q0 -125 -43.5 -249t-116.5 -222h-187q50 110 78.5 203t28.5 188l71 -58h-41q-95 0 -153.5 53.5t-58.5 145.5z" />
<glyph unicode="&#x201a;" d="M73 181q0 93 56 145.5t151 52.5q105 0 160 -64.5t55 -193.5q0 -124 -43.5 -248.5t-116.5 -222.5h-187q50 110 78.5 203t28.5 188l71 -58h-41q-95 0 -153.5 53.5t-58.5 144.5z" />
<glyph unicode="&#x201c;" horiz-adv-x="1072" d="M75 1184q0 125 44 249.5t115 221.5h187q-50 -109 -78.5 -202t-28.5 -189l-70 58h41q95 0 153.5 -53.5t58.5 -145.5q0 -93 -55 -145t-145 -52q-110 0 -166 64t-56 194zM578 1184q0 125 44 249.5t115 221.5h187q-50 -109 -78.5 -202t-28.5 -189l-70 58h41q95 0 153.5 -53.5 t58.5 -145.5q0 -93 -55 -145t-145 -52q-110 0 -166 64t-56 194z" />
<glyph unicode="&#x201d;" horiz-adv-x="1072" d="M73 1475q0 93 56 145t151 52q105 0 160 -64.5t55 -193.5q0 -125 -43.5 -249t-116.5 -222h-187q50 110 78.5 203t28.5 188l71 -58h-41q-95 0 -153.5 53.5t-58.5 145.5zM576 1475q0 93 56 145t151 52q105 0 160 -64.5t55 -193.5q0 -125 -43.5 -249t-116.5 -222h-187 q50 110 78.5 203t28.5 188l71 -58h-41q-95 0 -153.5 53.5t-58.5 145.5z" />
<glyph unicode="&#x201e;" horiz-adv-x="1072" d="M73 181q0 93 56 145.5t151 52.5q105 0 160 -64.5t55 -193.5q0 -124 -43.5 -248.5t-116.5 -222.5h-187q50 110 78.5 203t28.5 188l71 -58h-41q-95 0 -153.5 53.5t-58.5 144.5zM576 181q0 93 56 145.5t151 52.5q105 0 160 -64.5t55 -193.5q0 -124 -43.5 -248.5 t-116.5 -222.5h-187q50 110 78.5 203t28.5 188l71 -58h-41q-95 0 -153.5 53.5t-58.5 144.5z" />
<glyph unicode="&#x2022;" horiz-adv-x="779" d="M73 573q0 92 42.5 163.5t114 112.5t159.5 41q89 0 161 -41t114 -112t42 -164q0 -92 -42 -163t-114 -112t-161 -41q-88 0 -160 41t-114 112.5t-42 162.5z" />
<glyph unicode="&#x2026;" horiz-adv-x="1668" d="M73 180q0 92 56.5 145.5t155.5 53.5q98 0 155 -54.5t57 -144.5q0 -89 -58 -143t-154 -54t-154 53t-58 144zM622 180q0 92 56.5 145.5t155.5 53.5q98 0 155 -54.5t57 -144.5q0 -89 -58 -143t-154 -54t-154 53t-58 144zM1171 180q0 92 56.5 145.5t155.5 53.5 q98 0 155 -54.5t57 -144.5q0 -89 -58 -143t-154 -54t-154 53t-58 144z" />
<glyph unicode="&#x202f;" horiz-adv-x="409" />
<glyph unicode="&#x2039;" horiz-adv-x="719" d="M86 581l257 444h332l-257 -444l257 -445h-332z" />
<glyph unicode="&#x203a;" horiz-adv-x="719" d="M45 136l257 445l-257 444h332l257 -444l-257 -445h-332z" />
<glyph unicode="&#x205f;" horiz-adv-x="512" />
<glyph unicode="&#x20ac;" horiz-adv-x="1431" d="M68 500v193h1119v-193h-1119zM68 843v193h1119v-193h-1119zM250 755q0 260 95.5 433.5t276.5 260t435 86.5q86 0 167.5 -8.5t157.5 -27.5v-267q-72 17 -146 26.5t-154 9.5q-166 0 -275 -51.5t-162.5 -163.5t-53.5 -294q0 -188 53 -300t160 -161.5t268 -49.5 q77 0 154.5 12.5t155.5 35.5v-266q-73 -23 -162 -36t-180 -13q-185 0 -332 44.5t-249 138t-155.5 240t-53.5 351.5z" />
<glyph unicode="&#x2122;" horiz-adv-x="2253" d="M13 1306v210h884v-210h-310v-814h-262v814h-312zM985 492v1024h319l268 -639h-28l260 639h319v-1024h-246v793h50l-267 -644h-212l-279 644h62v-793h-246z" />
<glyph unicode="&#x25fc;" horiz-adv-x="1121" d="M0 0v1121h1121v-1121h-1121z" />
<glyph unicode="&#xfb01;" horiz-adv-x="1391" d="M26 863v257h800v-257h-800zM208 0v1212q0 144 56.5 248t163 159.5t255.5 55.5q43 0 81.5 -3.5t75.5 -12.5v-255q-28 7 -53.5 9.5t-53.5 2.5q-100 0 -151 -46t-51 -140v-1230h-323zM905 1453q0 82 50 126.5t152 44.5q103 0 152.5 -44.5t49.5 -126.5q0 -80 -49.5 -125 t-152.5 -45q-102 0 -152 45t-50 125zM943 0v1120h328v-1120h-328z" />
<glyph unicode="&#xfb02;" horiz-adv-x="1391" d="M26 863v257h800v-257h-800zM208 0v1212q0 144 56.5 248t163 159.5t255.5 55.5q43 0 81.5 -3.5t75.5 -12.5v-255q-28 7 -53.5 9.5t-53.5 2.5q-100 0 -151 -46t-51 -140v-1230h-323zM943 0v1655h327v-1655h-327z" />
</font>
</defs>
</svg>
