<?xml version="1.0" standalone="no"?>
<!DOCTYPE svg PUBLIC "-//W3C//DTD SVG 1.1//EN" "http://www.w3.org/Graphics/SVG/1.1/DTD/svg11.dtd" >
<svg xmlns="http://www.w3.org/2000/svg" xmlns:xlink="http://www.w3.org/1999/xlink" version="1.1">
<metadata></metadata>
<defs>
<font id="encode_sansextrabold" horiz-adv-x="605" >
<font-face units-per-em="2048" ascent="1638" descent="-410" />
<missing-glyph horiz-adv-x="520" />
<glyph horiz-adv-x="0" />
<glyph horiz-adv-x="682" />
<glyph horiz-adv-x="0" />
<glyph horiz-adv-x="0" />
<glyph unicode="&#xd;" horiz-adv-x="520" />
<glyph unicode=" "  horiz-adv-x="520" />
<glyph unicode="&#x09;" horiz-adv-x="520" />
<glyph unicode="&#xa0;" horiz-adv-x="520" />
<glyph unicode="!" horiz-adv-x="646" d="M77 199q0 100 66 158.5t180 58.5q115 0 180 -60t65 -157t-66 -157.5t-179 -60.5q-112 0 -179 58.5t-67 159.5zM118 1006v510h410v-510l-86 -491h-234z" />
<glyph unicode="&#x22;" horiz-adv-x="990" d="M66 1655h377l-71 -815h-236zM547 1655h377l-71 -815h-236z" />
<glyph unicode="#" horiz-adv-x="1320" d="M102 379v289h1117v-289h-1117zM102 848v289h1117v-289h-1117zM212 0l158 1516h293l-158 -1516h-293zM658 0l158 1516h293l-158 -1516h-293z" />
<glyph unicode="$" horiz-adv-x="1214" d="M49 1059q0 225 167 351t510 126q99 0 192 -11.5t165 -28.5v-316q-71 19 -160.5 30.5t-169.5 11.5q-123 0 -191 -18.5t-95.5 -51t-27.5 -72.5q0 -50 33.5 -80t130.5 -57l126 -32q150 -37 246.5 -96.5t143 -147t46.5 -206.5q0 -148 -76 -256.5t-220 -166.5t-348 -58 q-110 0 -223 16.5t-208 45.5v316q63 -20 139 -34t150.5 -22t134.5 -8q100 0 157 17t80.5 48.5t23.5 74.5q0 54 -38.5 86.5t-152.5 62.5l-125 31q-202 50 -306 159t-104 286zM426 71l362 1v-318h-362v317zM426 1462v299h362v-299h-362z" />
<glyph unicode="%" horiz-adv-x="2236" d="M78 1059q0 158 54.5 264.5t152.5 159.5t227 53t226.5 -53t152 -159.5t54.5 -264.5q0 -159 -54.5 -265t-152.5 -159t-226 -53q-129 0 -227 53t-152.5 159t-54.5 265zM379 1059q0 -91 17 -143.5t47 -75t68 -22.5q39 0 69 22t47.5 75t17.5 143q0 91 -17.5 143.5t-47.5 74.5 t-69 22q-38 0 -68 -22t-47 -74.5t-17 -142.5zM621 0l684 1516h312l-685 -1516h-311zM1291 459q0 159 55 264.5t152.5 159t225.5 53.5q129 0 227 -53.5t153 -159.5t55 -264q0 -159 -55 -265t-153 -159t-227 -53q-128 0 -225.5 53t-152.5 159t-55 265zM1591 459 q0 -90 17.5 -143t47.5 -75.5t68 -22.5q39 0 69.5 22.5t48 75t17.5 143.5t-17.5 143t-48 74.5t-69.5 22.5q-38 0 -68 -22.5t-47.5 -74.5t-17.5 -143z" />
<glyph unicode="&#x26;" horiz-adv-x="1680" d="M95 415q0 100 39.5 179.5t106.5 134t149 81.5l201 -144q-49 -38 -78 -88.5t-29 -118.5q0 -65 32.5 -110.5t94.5 -70t151 -24.5q104 0 186.5 37.5t130 124.5t47.5 236q0 59 -8.5 126t-24.5 129h307q16 -62 24.5 -127.5t8.5 -123.5q0 -223 -86.5 -373t-247 -225.5 t-382.5 -75.5q-206 0 -344.5 53.5t-208 151t-69.5 228.5zM229 1059q0 222 165 349.5t505 127.5q79 0 147 -6.5t130 -17.5v-316q-53 11 -119 18.5t-127 7.5q-119 0 -186.5 -21t-95.5 -60t-28 -91q0 -35 13 -65t43 -59.5t80 -63.5l924 -597l-176 -285l-925 597 q-139 89 -215 168.5t-105.5 156.5t-29.5 157z" />
<glyph unicode="'" horiz-adv-x="508" d="M66 1655h377l-71 -815h-236z" />
<glyph unicode="(" horiz-adv-x="754" d="M98 602q0 309 82 576.5t269 476.5h401q-126 -155 -205 -320.5t-115.5 -347t-36.5 -385.5t36.5 -385.5t115.5 -347t205 -320.5h-401q-186 209 -268.5 476.5t-82.5 576.5z" />
<glyph unicode=")" horiz-adv-x="754" d="M-96 -451q127 155 205.5 320.5t115 347t36.5 385.5t-36.5 385.5t-115 347t-205.5 320.5h401q187 -209 269 -476.5t82 -576.5t-81.5 -576.5t-269.5 -476.5h-401z" />
<glyph unicode="*" horiz-adv-x="1061" d="M31 1225l78 238l166 -54l171 -99l-40 193v152h250v-152l-41 -193l171 99l167 54l78 -238l-167 -55l-189 -21l143 -129l91 -127l-203 -148l-92 126l-83 191l-84 -191l-91 -126l-203 148l91 127l144 129l-189 21z" />
<glyph unicode="+" horiz-adv-x="1135" d="M109 632v293h306v319h305v-319h307v-293h-307v-320h-305v320h-306z" />
<glyph unicode="," d="M56 210q0 109 65 169t176 60q122 0 186 -74.5t64 -223.5q0 -131 -50 -264t-131 -237h-220q56 115 87 212t31 196l86 -67h-48q-110 0 -178 61.5t-68 167.5z" />
<glyph unicode="-" horiz-adv-x="956" d="M109 427v311h740v-311h-740z" />
<glyph unicode="." d="M56 210q0 106 66 167.5t181 61.5q114 0 179.5 -63t65.5 -166t-66.5 -166t-178.5 -63q-113 0 -180 61.5t-67 167.5z" />
<glyph unicode="/" horiz-adv-x="870" d="M0 -246l492 1901h378l-491 -1901h-379z" />
<glyph unicode="0" horiz-adv-x="1402" d="M88 758q0 267 73 439.5t210.5 255.5t329.5 83q191 0 329 -83t211.5 -255.5t73.5 -439.5t-74 -440t-212 -255.5t-328 -82.5q-191 0 -329 82.5t-211 255t-73 440.5zM473 759q0 -176 26 -276t77 -142t125 -42t125 42t77.5 142t26.5 274q0 176 -26.5 276t-77.5 142t-125 42 q-73 0 -124.5 -42t-77.5 -142t-26 -274z" />
<glyph unicode="1" horiz-adv-x="887" d="M29 834v364l473 324h253v-1522h-394v1296l141 -140z" />
<glyph unicode="2" horiz-adv-x="1131" d="M26 1162v317q46 16 111.5 29t136 20.5t134.5 7.5q300 0 452 -108t152 -344q0 -75 -20 -150.5t-66 -157t-126 -174.5l-321 -377l-7 98h609v-323h-1036v210l413 502q61 76 97.5 134t53 106t16.5 94q0 89 -59.5 132.5t-200.5 43.5q-90 0 -180.5 -16.5t-158.5 -43.5z" />
<glyph unicode="3" horiz-adv-x="1140" d="M41 31v290q87 -23 191 -37.5t197 -14.5q153 0 219 46.5t66 135.5q0 86 -63.5 131t-223.5 45h-237v294h200q148 0 208 44t60 120q0 79 -58 120t-190 41q-85 0 -177.5 -14.5t-169.5 -41.5v290q50 16 116 29t137.5 20t137.5 7q291 0 435.5 -108.5t144.5 -306.5 q0 -133 -75 -225t-206 -122v14q159 -25 244.5 -116t85.5 -247q0 -138 -69.5 -238t-211.5 -153.5t-357 -53.5q-110 0 -211.5 13t-192.5 38z" />
<glyph unicode="4" horiz-adv-x="1337" d="M34 293v214l507 1009h374l-498 -1009l-41 87h931v-301h-1273zM767 0v594l38 410h313v-1004h-351z" />
<glyph unicode="5" horiz-adv-x="1154" d="M69 36v290q86 -24 189.5 -38.5t198.5 -14.5q151 0 216.5 46t65.5 133q0 59 -34 99.5t-128 64.5t-271 34l-193 10l53 856h882v-301h-692l170 171l-39 -573l-227 133l194 -11q234 -12 378.5 -68.5t210.5 -157.5t66 -248q0 -234 -160.5 -357.5t-475.5 -123.5 q-110 0 -211.5 15t-192.5 41z" />
<glyph unicode="6" horiz-adv-x="1316" d="M97 709q0 276 89.5 460t260.5 275.5t416 91.5q90 0 171 -10t151 -37v-297q-71 25 -146.5 36t-155.5 11q-137 0 -227.5 -46.5t-134 -141.5t-43.5 -238v-166q0 -115 16.5 -190t47 -118t74 -61t99.5 -18q57 0 101.5 20.5t69.5 63.5t25 110t-26.5 109.5t-75 63t-114.5 20.5 q-50 0 -99.5 -11t-94.5 -36.5t-83 -62.5v265q57 59 155 91.5t201 32.5q139 0 250.5 -48.5t176 -150.5t64.5 -263q0 -150 -66.5 -258.5t-190.5 -167t-295 -58.5q-137 0 -250.5 42.5t-195 130.5t-126 226t-44.5 330z" />
<glyph unicode="7" horiz-adv-x="1078" d="M11 1193v323h1008v-210l-465 -1306h-402l494 1306l131 -113h-766z" />
<glyph unicode="8" horiz-adv-x="1402" d="M76 378q0 130 84 229t243 149l250 -93q-113 -37 -162.5 -103.5t-49.5 -136.5q0 -84 64 -130t201 -46q134 0 193.5 41.5t59.5 113.5q0 51 -27.5 88.5t-99 69t-205.5 65.5q-194 49 -305.5 119.5t-158.5 161t-47 199.5q0 127 67.5 224t202.5 152t339 55q265 0 412 -103 t147 -282q0 -76 -28.5 -145.5t-93 -128.5t-175.5 -102l-229 96q102 52 145.5 110.5t43.5 130.5q0 76 -56.5 116.5t-169.5 40.5q-125 0 -181 -42.5t-56 -106.5q0 -49 25.5 -85.5t97 -69t212.5 -71.5q195 -53 305 -120t155 -152.5t45 -196.5q0 -127 -68.5 -227.5t-205.5 -159 t-345 -58.5q-220 0 -359 51.5t-204.5 141t-65.5 205.5z" />
<glyph unicode="9" horiz-adv-x="1316" d="M52 1052q0 150 66.5 258.5t190.5 167t295 58.5q137 0 250.5 -42.5t195 -130.5t126 -226t44.5 -330q0 -276 -89.5 -460t-260.5 -275.5t-416 -91.5q-90 0 -171 10t-151 37v297q71 -25 146.5 -36t155.5 -11q137 0 227.5 46.5t134 141.5t43.5 238v166q0 115 -16.5 190 t-47 118t-74 61t-99.5 18q-57 0 -101.5 -20.5t-69.5 -63.5t-25 -110t26.5 -109.5t75 -63t114.5 -20.5q50 0 99.5 11t94.5 36.5t83 62.5v-265q-57 -59 -155 -91.5t-201 -32.5q-139 0 -250.5 48.5t-176 150.5t-64.5 263z" />
<glyph unicode=":" d="M56 210q0 106 66 167.5t181 61.5q114 0 179.5 -63t65.5 -166t-66.5 -166t-178.5 -63q-113 0 -180 61.5t-67 167.5zM56 913q0 106 66 167.5t181 61.5q114 0 179.5 -63t65.5 -166t-66.5 -166t-178.5 -63q-113 0 -180 61.5t-67 167.5z" />
<glyph unicode=";" d="M56 210q0 109 65 169t176 60q122 0 186 -74.5t64 -223.5q0 -131 -50 -264t-131 -237h-220q56 115 87 212t31 196l86 -67h-48q-110 0 -178 61.5t-68 167.5zM56 913q0 106 66 167.5t181 61.5q114 0 179.5 -63t65.5 -166t-66.5 -166t-178.5 -63q-113 0 -180 61.5t-67 167.5z " />
<glyph unicode="&#x3c;" horiz-adv-x="1135" d="M109 594v369l918 336v-292l-710 -246v40l710 -251v-293z" />
<glyph unicode="=" horiz-adv-x="1135" d="M109 394v292h918v-292h-918zM109 870v292h918v-292h-918z" />
<glyph unicode="&#x3e;" horiz-adv-x="1135" d="M109 257v293l708 251v-40l-708 246v292l918 -336v-369z" />
<glyph unicode="?" horiz-adv-x="1047" d="M29 1181v299q50 16 115.5 29t137 20t137.5 7q291 0 435.5 -108.5t144.5 -310.5q0 -111 -46.5 -193t-133 -139.5t-207.5 -92.5l-27 -180h-234l-66 362q134 23 207.5 53t102.5 69t29 87q0 76 -58.5 115t-192.5 39q-85 0 -176.5 -14.5t-167.5 -41.5zM222 199q0 100 66 158.5 t180 58.5q115 0 180.5 -60t65.5 -157t-66.5 -157.5t-179.5 -60.5q-112 0 -179 58.5t-67 159.5z" />
<glyph unicode="@" horiz-adv-x="2205" d="M78 532q0 345 122.5 567t353.5 328.5t558 106.5t553.5 -103.5t345 -311t118.5 -519.5q0 -227 -63.5 -364t-176 -197.5t-261.5 -60.5q-122 0 -209 38.5t-138 117.5h-19q-34 -87 -113 -121.5t-172 -34.5q-177 0 -275 92t-98 240q0 163 115.5 253.5t371.5 107.5l215 15 l42 -200l-219 -16q-75 -5 -110.5 -33.5t-35.5 -85.5q0 -55 36 -80t89 -25q30 0 72 11t69 36v363q0 66 -22 105t-73.5 56.5t-137.5 17.5q-68 0 -149.5 -14t-153.5 -40l2 287q84 27 182.5 41.5t188.5 14.5q187 0 306 -46t176 -152.5t57 -285.5v-304q0 -59 24 -85.5t67 -26.5 q44 0 77.5 29.5t52.5 108.5t19 230q0 188 -45.5 321t-138.5 216t-234.5 121.5t-334.5 38.5t-333.5 -41t-232.5 -130t-137 -233.5t-45 -350.5q0 -208 45.5 -353.5t141 -235t244.5 -130.5t355 -41q125 0 245.5 13.5t240.5 41.5v-245q-118 -28 -239 -41.5t-247 -13.5 q-345 0 -584 106.5t-363.5 328.5t-124.5 568z" />
<glyph unicode="A" horiz-adv-x="1532" d="M8 0l470 1516h577l469 -1516h-385l-394 1347h37l-392 -1347h-382zM370 374l83 309h625l82 -309h-790z" />
<glyph unicode="B" horiz-adv-x="1391" d="M123 13v1466q73 16 160 29t177 20t174 7q234 0 382 -47t218 -143t70 -238q0 -84 -32.5 -152.5t-91.5 -115.5t-139 -65l1 12q132 -20 217.5 -107.5t85.5 -248.5q0 -108 -41.5 -191t-133 -140.5t-239.5 -87.5t-362 -30q-63 0 -142 4.5t-158.5 11t-145.5 16.5zM467 628v292 h228q89 0 142 18t76 54.5t23 92.5q0 87 -55.5 126.5t-193.5 39.5q-49 0 -93.5 -4t-86.5 -12v-964q49 -4 89 -5.5t82 -1.5q117 0 183.5 20t94 60.5t27.5 101.5q0 95 -58.5 138.5t-196.5 43.5h-261z" />
<glyph unicode="C" horiz-adv-x="1299" d="M78 754q0 256 97.5 430t286 263t460.5 89q86 0 167 -8t158 -26v-321q-70 15 -142 23t-150 8q-160 0 -263 -46.5t-153 -146.5t-50 -261q0 -164 49.5 -264t150.5 -145.5t255 -45.5q76 0 152 12t151 32v-320q-72 -22 -161.5 -34.5t-180.5 -12.5q-200 0 -354 45.5t-259.5 140 t-159.5 241t-54 347.5z" />
<glyph unicode="D" horiz-adv-x="1572" d="M123 8v1471q74 16 159.5 28.5t175.5 19t176 6.5q427 0 644 -188t217 -587q0 -272 -103 -443.5t-311 -251t-522 -79.5q-66 0 -140 2.5t-149.5 8t-146.5 13.5zM516 305q39 -3 75.5 -3.5t73.5 -0.5q143 0 238 44.5t142.5 145t47.5 269.5q0 167 -49 267t-144 145.5t-236 45.5 q-33 0 -74 -4t-74 -11v-898z" />
<glyph unicode="E" horiz-adv-x="1316" d="M123 0v1516h1110v-312h-722v-893h732v-311h-1120zM353 618v312h774v-312h-774z" />
<glyph unicode="F" horiz-adv-x="1274" d="M123 0v1516h1109v-318h-716v-1198h-393zM370 572v318h755v-318h-755z" />
<glyph unicode="G" horiz-adv-x="1489" d="M78 754q0 256 102.5 430t303 263t496.5 89q89 0 175 -9t167 -28v-320q-76 16 -151.5 24.5t-154.5 8.5q-186 0 -302.5 -47t-171.5 -149.5t-55 -267.5q0 -154 50.5 -253t152 -146.5t254.5 -47.5q58 0 118.5 4.5t109.5 12.5l-168 -145v564h364v-722q-98 -15 -197 -24.5 t-195 -9.5q-301 0 -500.5 85t-298.5 256.5t-99 431.5z" />
<glyph unicode="H" horiz-adv-x="1592" d="M123 0v1516h393v-570h560v570h393v-1516h-393v601h-560v-601h-393z" />
<glyph unicode="I" horiz-adv-x="638" d="M123 0v1516h393v-1516h-393z" />
<glyph unicode="J" horiz-adv-x="638" d="M-28 -195q57 77 90.5 151t48 159t14.5 194v1207h391v-1198q0 -128 -28 -240.5t-92.5 -219.5t-174.5 -218z" />
<glyph unicode="K" horiz-adv-x="1396" d="M123 0v1516h393v-1516h-393zM463 601v345h210v-345h-210zM522 771l474 745h412l-503 -789l7 101l540 -828h-425z" />
<glyph unicode="L" horiz-adv-x="1204" d="M123 0v1516h393v-1191h679v-325h-1072z" />
<glyph unicode="M" horiz-adv-x="1966" d="M127 0v1516h480l404 -938h-42l390 938h480v-1516h-366v1171h72l-403 -949h-318l-420 949h90v-1171h-367z" />
<glyph unicode="N" horiz-adv-x="1607" d="M123 0v1516h393l662 -1023h-63v1023h369v-1516h-393l-662 1023h64v-1023h-370z" />
<glyph unicode="O" horiz-adv-x="1644" d="M78 758q0 260 92 433t259.5 259t392.5 86q226 0 393.5 -86.5t260 -259.5t92.5 -432t-92.5 -432t-260.5 -259.5t-393 -86.5t-392.5 86t-259.5 259t-92 433zM480 765q0 -169 40.5 -272.5t116.5 -150.5t185 -47q110 0 186 47t116 147.5t40 261.5q0 168 -40.5 271t-117 151 t-184.5 48t-184 -47t-117 -147t-41 -262z" />
<glyph unicode="P" horiz-adv-x="1379" d="M123 0v1486q112 24 231.5 36.5t252.5 12.5q352 0 528 -134t176 -425q0 -274 -169.5 -416t-497.5 -142q-35 0 -65 1.5t-63 3.5v-423h-393zM516 719q34 -4 64 -6t68 -2q144 0 213 59.5t69 203.5q0 142 -69 205.5t-217 63.5q-38 0 -67.5 -2t-60.5 -8v-514z" />
<glyph unicode="Q" horiz-adv-x="1644" d="M78 749q0 265 92 439.5t259.5 261t392.5 86.5q226 0 393.5 -86.5t260 -259t92.5 -432.5q0 -228 -78 -395t-232 -258t-387 -91q-41 0 -84 3t-88 10l127 95q125 -47 245.5 -80.5t238.5 -56t239 -36.5l-64 -305q-329 52 -568 128t-401 176.5t-258 223.5t-138 267.5 t-42 309.5zM480 765q0 -170 40 -273t116 -150t186 -47t186 47t116 147.5t40 261.5q0 168 -40.5 271t-117 151t-184.5 48t-184 -47t-117 -147t-41 -262z" />
<glyph unicode="R" horiz-adv-x="1436" d="M123 0v1479q72 16 155 29t171 20t173 7q337 0 508.5 -122t171.5 -379q0 -166 -80 -278t-226 -169t-345 -57q-39 0 -72.5 2t-69.5 3v-535h-386zM509 828q26 -3 50 -5t48.5 -2.5t51.5 -0.5q137 0 206 49.5t69 163.5q0 75 -30.5 123t-89.5 70.5t-148 22.5q-44 0 -83 -3.5 t-74 -10.5v-407zM532 696h418l481 -696h-427z" />
<glyph unicode="S" horiz-adv-x="1214" d="M49 1059q0 225 165 351t499 126q109 0 203.5 -12.5t166.5 -32.5v-316q-71 23 -163 35t-184 12q-115 0 -179 -18.5t-91 -51t-27 -72.5q0 -50 33.5 -80t130.5 -57l126 -32q150 -37 246.5 -96.5t143 -147t46.5 -206.5q0 -148 -75.5 -256.5t-217.5 -166.5t-342 -58 q-117 0 -231 17.5t-209 48.5v316q63 -22 139 -36.5t153.5 -23t145.5 -8.5q139 0 193 38t54 102q0 54 -38.5 86.5t-152.5 62.5l-125 31q-202 50 -306 159t-104 286z" />
<glyph unicode="T" horiz-adv-x="1356" d="M13 1191v325h1330v-325h-467v-1191h-395v1191h-468z" />
<glyph unicode="U" horiz-adv-x="1559" d="M117 648v868h393v-906q0 -165 69 -237.5t205 -72.5q135 0 204 72.5t69 237.5v906h386v-868q0 -224 -69.5 -372.5t-216 -222t-373.5 -73.5q-231 0 -378.5 73.5t-218 222t-70.5 372.5z" />
<glyph unicode="V" horiz-adv-x="1509" d="M-3 1516h411l399 -1357h-85l408 1357h382l-465 -1516h-584z" />
<glyph unicode="W" horiz-adv-x="2394" d="M22 1516h397l323 -1345h-99l350 1345h431l334 -1345h-90l333 1345h371l-391 -1516h-502l-326 1277h104l-342 -1277h-502z" />
<glyph unicode="X" horiz-adv-x="1444" d="M-48 0l538 790l233 287l294 439h423l-490 -721l-231 -286l-340 -509h-427zM-6 1516h434l295 -439l227 -282l540 -795h-432l-339 509l-229 281z" />
<glyph unicode="Y" horiz-adv-x="1356" d="M-61 1516h415l389 -646h-107l385 646h385l-607 -1015l79 281v-782h-394v787l79 -286z" />
<glyph unicode="Z" horiz-adv-x="1301" d="M60 0v215l711 1048l2 -72h-702v325h1160v-216l-712 -1047l-2 72h724v-325h-1181z" />
<glyph unicode="[" horiz-adv-x="754" d="M143 -451v2106h639v-301h-254v-1504h246v-301h-631z" />
<glyph unicode="\" horiz-adv-x="871" d="M0 1655h380l491 -1901h-379z" />
<glyph unicode="]" horiz-adv-x="754" d="M-29 1354v301h640v-2106h-630v301h244v1504h-254z" />
<glyph unicode="^" horiz-adv-x="1320" d="M55 758l426 758h359l426 -758h-372l-314 572h161l-314 -572h-372z" />
<glyph unicode="_" horiz-adv-x="1270" d="M88 -1h1095v-301h-1095v301z" />
<glyph unicode="`" horiz-adv-x="1201" d="M148 1655h407l236 -400h-353z" />
<glyph unicode="a" horiz-adv-x="1176" d="M54 310q0 163 115 255t373 108l213 14l43 -207l-214 -14q-80 -5 -116 -35.5t-36 -82.5q0 -50 32.5 -77.5t92.5 -27.5q35 0 72.5 10t68.5 36v381q0 68 -22.5 107.5t-75.5 57t-144 17.5q-66 0 -148.5 -11t-156.5 -32v286q87 24 188 35.5t188 11.5q191 0 312.5 -46.5 t178 -156t56.5 -295.5v-644h-315l-27 108h-17q-48 -69 -123.5 -99.5t-164.5 -30.5q-177 0 -275 93t-98 239z" />
<glyph unicode="b" horiz-adv-x="1296" d="M110 46v1609h385v-638h18q48 60 119 92.5t165 32.5q118 0 217.5 -59.5t160 -182.5t60.5 -315q0 -294 -163 -450.5t-499 -156.5q-115 0 -237 16.5t-226 51.5zM495 281q24 -6 52 -10t60 -4q121 0 181 65.5t60 222.5q0 106 -25 165.5t-70.5 83.5t-108.5 24 q-39 0 -78.5 -10.5t-70.5 -34.5v-502z" />
<glyph unicode="c" horiz-adv-x="1016" d="M61 559q0 197 76.5 326t220.5 193t349 64q72 0 135.5 -6.5t122.5 -19.5v-301q-52 9 -102 14t-101 5q-106 0 -173.5 -28.5t-98.5 -88.5t-31 -155q0 -99 31 -160t92.5 -88.5t153.5 -27.5q53 0 106 8.5t123 26.5v-302q-60 -19 -135 -30t-154 -11q-199 0 -335.5 65t-208 194 t-71.5 322z" />
<glyph unicode="d" horiz-adv-x="1296" d="M61 539q0 194 72 328.5t211.5 205t346.5 70.5q29 0 57.5 -2t53.5 -4v518h385v-1655h-323l-23 117h-17q-48 -62 -122 -99.5t-173 -37.5q-126 0 -232.5 57.5t-171 180.5t-64.5 321zM449 568q0 -108 25 -167.5t69 -83.5t103 -24q43 0 84 12.5t72 40.5v497q-24 4 -53 7t-58 3 q-121 0 -181.5 -65t-60.5 -220z" />
<glyph unicode="e" horiz-adv-x="1165" d="M61 563q0 181 63 311.5t185 199t298 68.5q168 0 280.5 -69t169.5 -202t57 -321v-97h-831v216h532l-57 -19q0 94 -16.5 150t-51.5 79t-87 23q-53 0 -88 -23t-52.5 -78.5t-17.5 -149.5v-157q0 -85 26.5 -135t95.5 -71.5t198 -21.5q67 0 140 9t145 23v-285 q-92 -18 -175 -26.5t-165 -8.5q-225 0 -368.5 61t-212 190t-68.5 334z" />
<glyph unicode="f" horiz-adv-x="854" d="M28 823v300h830v-300h-830zM200 0v1171q0 158 62 270.5t182 173t295 60.5q46 0 86.5 -3t81.5 -9v-298q-29 4 -54 5.5t-52 1.5q-116 0 -167 -44.5t-51 -137.5v-1190h-383z" />
<glyph unicode="g" horiz-adv-x="1296" d="M61 540q0 286 163.5 444t499.5 158q77 0 159 -8t160 -22.5t144 -36.5v-943q0 -316 -160 -459.5t-492 -143.5q-93 0 -194 10t-199 34v298q97 -25 190 -37t171 -12q159 0 229 55.5t70 181.5v62h-18q-48 -59 -119.5 -92t-164.5 -33q-115 0 -215 59t-162 179t-62 306z M449 571q0 -102 24.5 -160t70 -81.5t108.5 -23.5q40 0 79.5 11.5t70.5 33.5v491q-24 5 -52.5 8t-60.5 3q-116 0 -178 -64.5t-62 -217.5z" />
<glyph unicode="h" horiz-adv-x="1284" d="M110 0v1655h385v-640h18q53 61 128 94t169 33q103 0 187.5 -45.5t134.5 -146t50 -265.5v-685h-386v657q0 88 -35 121t-96 33q-31 0 -62.5 -8t-59.5 -24t-48 -39v-740h-385z" />
<glyph unicode="i" d="M70 1453q0 93 57 144t176 51q121 0 177.5 -51t56.5 -144t-56.5 -144t-177.5 -51q-120 0 -176.5 51t-56.5 144zM110 0v1123h386v-1123h-386z" />
<glyph unicode="j" d="M-43 -322q57 77 90.5 152t48 160t14.5 192v941h386v-925q0 -129 -28 -243t-91.5 -221.5t-171.5 -218.5zM65 1454q0 93 57 144t176 51q121 0 177.5 -51t56.5 -144t-56.5 -144t-177.5 -51q-120 0 -176.5 51t-56.5 144z" />
<glyph unicode="k" horiz-adv-x="1259" d="M110 0v1655h385v-1655h-385zM464 425v306h171v-306h-171zM503 578l350 545h408l-369 -587v100l405 -636h-416z" />
<glyph unicode="l" horiz-adv-x="604" d="M110 0v1655h385v-1655h-385z" />
<glyph unicode="m" horiz-adv-x="1888" d="M110 0v1123h317l26 -109h16q58 62 136 95t175 33q102 0 184 -44.5t129.5 -142.5t47.5 -259v-696h-378v662q0 86 -31 117.5t-85 31.5q-30 0 -58 -8t-52.5 -24t-41.5 -39v-740h-385zM1046 977q74 86 166.5 125.5t188.5 39.5q112 0 199 -45.5t136.5 -146.5t49.5 -267v-683 h-385v662q0 86 -34 117.5t-88 31.5q-32 0 -61.5 -8t-54 -25t-43.5 -42z" />
<glyph unicode="n" horiz-adv-x="1284" d="M110 0v1123h317l26 -109h16q60 62 142 95t180 33q113 0 201 -45.5t139 -146.5t51 -265v-685h-386v660q0 86 -34.5 118.5t-96.5 32.5q-32 0 -63.5 -7.5t-59 -23.5t-47.5 -40v-740h-385z" />
<glyph unicode="o" horiz-adv-x="1267" d="M61 558q0 194 68 323.5t196 195t309 65.5t309 -66t195 -195.5t67 -320.5q0 -193 -69 -322t-197.5 -194.5t-304.5 -65.5t-304.5 65.5t-198.5 194.5t-70 320zM449 560q0 -114 21.5 -178t62.5 -90t101 -26q59 0 100.5 26t62.5 89.5t21 176.5q0 115 -21.5 179t-63 90 t-99.5 26q-59 0 -100.5 -25.5t-63 -89.5t-21.5 -178z" />
<glyph unicode="p" horiz-adv-x="1296" d="M110 -451v1574h323l23 -118h17q47 62 121.5 99.5t172.5 37.5q126 0 232.5 -57.5t171 -181t64.5 -319.5q0 -194 -71 -329t-211.5 -206t-346.5 -71q-30 0 -58 2.5t-53 4.5v-436h-385zM495 279q24 -3 53 -7t57 -4q122 0 182.5 65t60.5 221q0 108 -24.5 167t-69 83.5 t-104.5 24.5q-42 0 -83.5 -12.5t-71.5 -41.5v-496z" />
<glyph unicode="q" horiz-adv-x="1296" d="M61 536q0 295 163 450.5t499 155.5q77 0 159.5 -8t160.5 -22.5t144 -36.5v-1526h-385v555h-18q-48 -60 -119.5 -93t-164.5 -33q-118 0 -218 59.5t-160.5 183t-60.5 315.5zM449 566q0 -106 25 -166t70.5 -83.5t107.5 -23.5q40 0 79.5 10.5t70.5 33.5v505q-24 5 -52.5 8 t-60.5 3q-116 0 -178 -65t-62 -222z" />
<glyph unicode="r" horiz-adv-x="861" d="M110 0v1123h314l30 -143h17q44 85 119 123t168 38q25 0 49 -2.5t43 -5.5v-348q-27 6 -58 8t-58 2q-46 0 -91.5 -10.5t-84.5 -30.5t-63 -48v-706h-385z" />
<glyph unicode="s" horiz-adv-x="1030" d="M53 770q0 169 138 270.5t421 101.5q86 0 168 -10t145 -27v-279q-65 18 -142.5 28t-158.5 10q-88 0 -134.5 -12t-63 -31.5t-16.5 -42.5q0 -25 17 -40t59 -23l194 -34q147 -27 227 -101t80 -229q0 -173 -137.5 -273t-386.5 -100q-101 0 -197.5 13t-179.5 38v278 q82 -25 177 -38.5t193 -13.5q99 0 137 22.5t38 60.5q0 30 -16.5 44.5t-59.5 23.5l-194 33q-160 29 -234 110.5t-74 220.5z" />
<glyph unicode="t" horiz-adv-x="898" d="M19 823v300h834v-300h-834zM191 419v704l72 393h315v-1037q0 -105 37.5 -145t128.5 -40q25 0 51.5 3t60.5 8v-301q-45 -10 -104.5 -18t-115.5 -8q-215 0 -330 106.5t-115 334.5z" />
<glyph unicode="u" horiz-adv-x="1274" d="M102 435v688h385v-660q0 -86 35 -119t91 -33q30 0 61 8.5t58.5 24t46.5 38.5v741h386v-1123h-317l-26 110h-15q-61 -63 -139.5 -96t-168.5 -33q-115 0 -204.5 45.5t-141 145t-51.5 263.5z" />
<glyph unicode="v" horiz-adv-x="1233" d="M-7 1123h401l247 -814h-26l248 814h378l-384 -1123h-481z" />
<glyph unicode="w" horiz-adv-x="1898" d="M38 1123h363l172 -741h-15l190 741h421l185 -741h-23l181 741h349l-292 -1123h-422l-204 796h20l-210 -796h-422z" />
<glyph unicode="x" horiz-adv-x="1196" d="M-16 0l387 566l232 270l188 287h409l-378 -553l-227 -267l-202 -303h-409zM-9 1123h422l190 -287l219 -266l391 -570h-420l-198 303l-224 263z" />
<glyph unicode="y" horiz-adv-x="1233" d="M-7 1123h401l338 -1123h-356zM326 -451l155 451l134 309l248 814h378l-540 -1574h-375z" />
<glyph unicode="z" horiz-adv-x="1071" d="M68 0v245l523 645v-67h-513v300h934v-243l-524 -647v68h534v-301h-954z" />
<glyph unicode="{" horiz-adv-x="795" d="M0 496v301h62q56 0 89 32.5t33 89.5v345q0 201 113.5 306t335.5 105q56 0 103 -4t87 -9v-293h-122q-66 0 -99 -27t-33 -92v-324q0 -144 -84 -221.5t-284 -80.5v44q201 -2 284.5 -79.5t83.5 -221.5v-413q0 -63 33.5 -91t98.5 -28h122v-293q-40 -5 -87 -9t-103 -4 q-222 0 -335.5 105.5t-113.5 306.5v432q0 57 -32.5 90t-89.5 33h-62z" />
<glyph unicode="|" horiz-adv-x="591" d="M123 -451v2106h346v-2106h-346z" />
<glyph unicode="}" horiz-adv-x="795" d="M-29 -165h123q65 0 98 27.5t33 91.5v413q0 144 85.5 221.5t283.5 79.5v-44q-198 3 -283.5 80t-85.5 222v324q0 65 -33 92t-98 27h-123v293q41 5 88 9t104 4q223 0 335.5 -105.5t112.5 -305.5v-345q0 -56 33 -89t89 -33h63v-301h-63q-56 0 -89 -33t-33 -90v-432 q0 -201 -112.5 -306.5t-335.5 -105.5q-56 0 -103.5 4t-88.5 9v293z" />
<glyph unicode="~" horiz-adv-x="1135" d="M109 582v297q96 102 252 102q62 0 119.5 -20.5t110.5 -44.5q50 -22 97 -39t93 -17q73 0 130 27t116 86v-296q-95 -104 -253 -104q-62 0 -119 20.5t-111 44.5q-49 22 -96.5 39t-94.5 17q-72 0 -128 -26t-116 -86z" />
<glyph unicode="&#xa1;" horiz-adv-x="646" d="M77 913q0 108 67 169t180 61q112 0 178 -62.5t66 -167.5q0 -102 -65.5 -165t-178.5 -63q-115 0 -181 61.5t-66 166.5zM118 106l90 480h234l86 -478v-497h-410v495z" />
<glyph unicode="&#xa2;" horiz-adv-x="1021" d="M61 559q0 197 76.5 326t220.5 193t349 64q72 0 135.5 -6.5t122.5 -19.5v-301q-53 9 -102.5 14t-101.5 5q-105 0 -172.5 -28.5t-98.5 -88.5t-31 -155q0 -99 31 -160t92.5 -88.5t153.5 -27.5q53 0 106 8.5t123 26.5v-302q-60 -19 -135 -30t-154 -11q-199 0 -335.5 65 t-208 194t-71.5 322zM473 53h328v-299h-328v299zM473 1070v299h328v-299h-328z" />
<glyph unicode="&#xa3;" horiz-adv-x="1403" d="M73 0v311h1275v-311h-1275zM73 627v282h1027v-282h-1027zM265 114v898q0 255 167.5 389.5t510.5 134.5q99 0 192 -11.5t165 -28.5v-316q-71 19 -160.5 30.5t-169.5 11.5q-124 0 -194.5 -20t-100 -62.5t-29.5 -111.5v-914h-381z" />
<glyph unicode="&#xa4;" horiz-adv-x="1320" d="M86 367l120 117l224 192l149 -150l-192 -223l-118 -120zM86 1149l182 183l118 -120l194 -225l-149 -148l-225 192zM272 758q0 115 51 200.5t139 134.5t198 49q111 0 199 -49t139 -135t51 -200q0 -116 -51 -202.5t-139.5 -135t-198.5 -48.5q-111 0 -198.5 48.5t-138.5 135 t-51 202.5zM495 758q0 -84 47 -131.5t118 -47.5q72 0 119 47.5t47 131.5q0 78 -45 128.5t-118 50.5t-120.5 -47.5t-47.5 -131.5zM741 987l194 225l118 120l182 -183l-120 -118l-225 -192zM742 526l149 150l224 -192l120 -117l-183 -184l-118 120z" />
<glyph unicode="&#xa5;" horiz-adv-x="1362" d="M-57 1516h414l389 -646h-107l385 646h385l-607 -1015l79 281v-782h-395v787l79 -286zM168 254v223h1031v-223h-1031zM168 596v223h1031v-223h-1031z" />
<glyph unicode="&#xa6;" horiz-adv-x="591" d="M123 348h346v-799h-346v799zM123 856v799h346v-799h-346z" />
<glyph unicode="&#xa7;" horiz-adv-x="1170" d="M84 760q0 93 48 161t130 114l198 -130q-33 -36 -48 -65t-15 -60q0 -37 22.5 -62.5t81.5 -37.5l240 -46q138 -28 215 -96.5t77 -193.5q0 -168 -136.5 -267t-402.5 -99q-84 0 -177.5 11t-176.5 31v264q84 -23 172 -33t176 -10q79 0 122 10t59.5 29t16.5 43q0 32 -18 47.5 t-59 23.5l-239 46q-128 27 -207 102.5t-79 217.5zM128 1164q0 112 59 195t185.5 129t327.5 46q76 0 152 -7t139 -21v-262q-66 14 -130.5 21t-131.5 7q-105 0 -159.5 -13t-74.5 -33t-20 -40q0 -28 19 -44t60 -24l249 -44q132 -26 207.5 -99.5t75.5 -216.5q0 -98 -52.5 -169 t-140.5 -119l-207 136q49 38 68 65.5t19 60.5q0 38 -21.5 63t-80.5 38l-240 46q-142 29 -222.5 99.5t-80.5 185.5z" />
<glyph unicode="&#xa8;" horiz-adv-x="1201" d="M151 1453q0 88 52 138t150 50t150 -50t52 -138t-52 -138t-150 -50t-150 50t-52 138zM674 1453q0 88 51.5 138t150.5 50t150.5 -50t51.5 -138t-51.5 -138t-150.5 -50q-98 0 -150 50t-52 138z" />
<glyph unicode="&#xa9;" horiz-adv-x="1689" d="M78 758q0 234 95.5 409.5t267.5 273t404 97.5q230 0 402.5 -97.5t268.5 -273t96 -409.5t-96 -410t-268.5 -273.5t-402.5 -97.5q-231 0 -403.5 97.5t-268 273t-95.5 410.5zM284 758q0 -179 66 -310.5t191.5 -202.5t303.5 -71q177 0 303 71t192 202.5t66 310.5t-66 310 t-192 202t-303 71q-178 0 -303.5 -71t-191.5 -202t-66 -310zM463 750q0 201 124.5 311t338.5 110q56 0 104 -5.5t92 -17.5v-230q-46 9 -86.5 13.5t-85.5 4.5q-109 0 -160.5 -47.5t-51.5 -137.5q0 -89 52 -136.5t147 -47.5q43 0 84 6.5t101 21.5v-230q-40 -15 -94 -24 t-117 -9q-205 0 -326.5 109.5t-121.5 308.5z" />
<glyph unicode="&#xaa;" horiz-adv-x="984" d="M29 876q0 136 94 207t307 80l179 11l43 -168l-168 -8q-56 -3 -81 -23t-25 -56q0 -39 24.5 -59t71.5 -20q19 0 42 5t42 17v306q0 37 -15.5 61t-57.5 36t-120 12q-59 0 -126.5 -8.5t-127.5 -26.5v256q77 19 162 29t161 10q168 0 274 -40t155 -130.5t49 -244.5v-497h-295 l-25 86h-15q-39 -55 -101.5 -79.5t-135.5 -24.5q-153 0 -232 76t-79 193z" />
<glyph unicode="&#xab;" horiz-adv-x="1334" d="M76 583l256 447h390l-255 -447l255 -449h-390zM654 583l256 447h390l-255 -447l255 -449h-390z" />
<glyph unicode="&#xac;" horiz-adv-x="1363" d="M109 632v293h1153v-721h-305v428h-848z" />
<glyph unicode="&#xad;" horiz-adv-x="956" d="M109 427v311h740v-311h-740z" />
<glyph unicode="&#xae;" horiz-adv-x="1447" d="M99 903q0 186 79 328.5t220 222.5t326 80t326 -80t220 -222t79 -329q0 -186 -79 -328t-220 -221.5t-326 -79.5t-326 79.5t-220 221.5t-79 328zM257 903q0 -146 58 -254t163 -167.5t246 -59.5t246 59.5t163 167.5t58 254t-58 255.5t-163 168.5t-246 59t-246 -59t-163 -168 t-58 -256zM499 614v607h216q135 0 201 -51.5t66 -154.5t-65.5 -154t-201.5 -51h-56l-5 -196h-155zM659 936h80q90 0 90 79q0 81 -90 81h-80v-160zM701 818l154 27l159 -231h-171z" />
<glyph unicode="&#xaf;" horiz-adv-x="1201" d="M233 1339v229h762v-229h-762z" />
<glyph unicode="&#xb0;" horiz-adv-x="991" d="M99 1146q0 114 51.5 202t141.5 137.5t204 49.5q115 0 204.5 -49.5t141 -137.5t51.5 -202t-51.5 -202t-141 -138.5t-204.5 -50.5q-114 0 -204 50.5t-141.5 138.5t-51.5 202zM333 1146q0 -80 46.5 -126.5t117.5 -46.5q70 0 116 46.5t46 126.5q0 81 -47.5 126t-115.5 45 q-69 0 -116 -45t-47 -126z" />
<glyph unicode="&#xb1;" horiz-adv-x="1135" d="M109 1v292h918v-292h-918zM109 689v292h306v293h305v-293h307v-292h-307v-293h-305v293h-306z" />
<glyph unicode="&#xb2;" horiz-adv-x="900" d="M68 1394v237q54 17 129.5 27.5t149.5 10.5q214 0 323.5 -74t109.5 -237q0 -78 -34.5 -154.5t-114.5 -167.5l-209 -236l1 73h402v-242h-745v157l286 330q60 71 86.5 119.5t26.5 89.5q0 53 -38.5 80t-138.5 27q-61 0 -124.5 -11.5t-109.5 -28.5z" />
<glyph unicode="&#xb3;" horiz-adv-x="900" d="M70 650v219q66 -17 139 -26t134 -9q101 0 143 27t42 79q0 51 -38 77t-133 26h-191v221h172q84 0 117.5 25t33.5 68q0 47 -37.5 71t-127.5 24q-56 0 -123 -10t-118 -30v219q51 16 129 27t148 11q212 0 316 -73.5t104 -211.5q0 -88 -48.5 -149t-133.5 -81v8 q102 -15 159 -76.5t57 -164.5q0 -142 -113 -223.5t-344 -81.5q-74 0 -147 9t-140 25z" />
<glyph unicode="&#xb4;" horiz-adv-x="1201" d="M438 1255l236 400h406l-289 -400h-353z" />
<glyph unicode="&#xb5;" horiz-adv-x="1274" d="M102 -451v1573h385v-1573h-385zM300 435v250h187v-222q0 -86 35 -119t92 -33q29 0 60 8.5t58.5 24t46.5 38.5v741h386v-1123h-317l-26 110h-15q-45 -63 -101.5 -96t-122.5 -33q-83 0 -146.5 45.5t-100 145t-36.5 263.5z" />
<glyph unicode="&#xb6;" horiz-adv-x="1379" d="M69 976q0 291 119 425t375 134q75 0 151 -5t141 -14v-1516h-268v421q-20 -2 -39.5 -2.5t-40.5 -0.5q-216 0 -327 141.5t-111 416.5zM988 0v1516h268v-1516h-268z" />
<glyph unicode="&#xb7;" d="M56 573q0 106 66 168t181 62q114 0 179.5 -63t65.5 -167q0 -103 -66.5 -166t-178.5 -63q-113 0 -180 61.5t-67 167.5z" />
<glyph unicode="&#xb8;" horiz-adv-x="1201" d="M418 -290q41 -15 88.5 -23t82.5 -8q49 0 74 15.5t25 52.5q0 70 -100 70h-51v203h180v-148l-85 51q125 0 189.5 -51t64.5 -141q0 -89 -68.5 -141.5t-210.5 -52.5q-52 0 -100 8.5t-89 22.5v142z" />
<glyph unicode="&#xb9;" horiz-adv-x="900" d="M131 631v242h713v-242h-713zM136 1203v262l311 194h198v-999h-305v834l107 -97z" />
<glyph unicode="&#xba;" horiz-adv-x="1058" d="M36 1072q0 221 128.5 343t364.5 122q237 0 365.5 -123.5t128.5 -341.5q0 -145 -58 -249t-168 -160t-268 -56q-237 0 -365 122t-128 343zM392 1072q0 -80 17 -124.5t47.5 -63t72.5 -18.5t73 18.5t48 63t17 124.5t-17 124.5t-48 62.5t-73 18t-72.5 -18t-47.5 -62.5 t-17 -124.5z" />
<glyph unicode="&#xbb;" horiz-adv-x="1334" d="M35 134l256 449l-256 447h391l255 -447l-255 -449h-391zM613 134l256 449l-256 447h391l255 -447l-255 -449h-391z" />
<glyph unicode="&#xbc;" horiz-adv-x="2212" d="M131 631v242h713v-242h-713zM136 1203v262l311 194h198v-999h-305v834l107 -97zM533 -139l828 1794h318l-828 -1794h-318zM1337 49v161l302 675h280l-298 -675l-25 64h596v-225h-855zM1806 -139v413l54 265h211v-678h-265z" />
<glyph unicode="&#xbd;" horiz-adv-x="2212" d="M131 631v242h713v-242h-713zM136 1203v262l311 194h198v-999h-305v834l107 -97zM533 -139l828 1794h318l-828 -1794h-318zM1381 624v237q54 17 129.5 27.5t149.5 10.5q214 0 323.5 -74t109.5 -237q0 -78 -34.5 -154.5t-114.5 -167.5l-209 -236l1 73h402v-242h-745v157 l286 330q60 71 86.5 119.5t26.5 89.5q0 53 -38.5 80t-138.5 27q-61 0 -124.5 -11.5t-109.5 -28.5z" />
<glyph unicode="&#xbe;" horiz-adv-x="2212" d="M70 650v219q66 -17 139 -26t134 -9q101 0 143 27t42 79q0 51 -38 77t-133 26h-191v221h172q84 0 117.5 25t33.5 68q0 47 -37.5 71t-127.5 24q-56 0 -123 -10t-118 -30v219q51 16 129 27t148 11q212 0 316 -73.5t104 -211.5q0 -88 -48.5 -149t-133.5 -81v8 q102 -15 159 -76.5t57 -164.5q0 -142 -113 -223.5t-344 -81.5q-74 0 -147 9t-140 25zM533 -139l828 1794h318l-828 -1794h-318zM1337 49v161l302 675h280l-298 -675l-25 64h596v-225h-855zM1806 -139v413l54 265h211v-678h-265z" />
<glyph unicode="&#xbf;" horiz-adv-x="1047" d="M49 7q0 110 46 193t132.5 140t207.5 91l28 180h233l67 -361q-134 -23 -208 -53.5t-102.5 -69.5t-28.5 -86q0 -74 59 -113.5t192 -39.5q86 0 177 15.5t167 42.5v-299q-50 -16 -115.5 -29t-137 -20.5t-137.5 -7.5q-291 0 -435.5 108.5t-144.5 308.5zM334 926q0 97 67 157 t179 60t178.5 -59t66.5 -158q0 -100 -65.5 -159t-179.5 -59q-115 0 -180.5 60t-65.5 158z" />
<glyph unicode="&#xc0;" horiz-adv-x="1532" d="M8 0l470 1516h577l469 -1516h-385l-394 1347h37l-392 -1347h-382zM350 1946h403l186 -318h-346zM370 374l83 309h625l82 -309h-790z" />
<glyph unicode="&#xc1;" horiz-adv-x="1532" d="M8 0l470 1516h577l469 -1516h-385l-394 1347h37l-392 -1347h-382zM370 374l83 309h625l82 -309h-790zM591 1628l187 318h403l-243 -318h-347z" />
<glyph unicode="&#xc2;" horiz-adv-x="1532" d="M8 0l470 1516h577l469 -1516h-385l-394 1347h37l-392 -1347h-382zM339 1628l266 318h323l265 -318h-285l-170 215h57l-170 -215h-286zM370 374l83 309h625l82 -309h-790z" />
<glyph unicode="&#xc3;" horiz-adv-x="1532" d="M8 0l470 1516h577l469 -1516h-385l-394 1347h37l-392 -1347h-382zM362 1646v215q44 40 96 58t125 18q58 0 107 -13t95 -29q42 -13 84 -25t87 -12q67 0 116 17.5t99 54.5v-216q-43 -39 -95.5 -57t-125.5 -18q-57 0 -106 13.5t-96 27.5q-41 14 -83 25.5t-88 11.5 q-67 0 -116 -17.5t-99 -53.5zM370 374l83 309h625l82 -309h-790z" />
<glyph unicode="&#xc4;" horiz-adv-x="1532" d="M8 0l470 1516h577l469 -1516h-385l-394 1347h37l-392 -1347h-382zM292 1792q0 80 51 124t151 44t151 -44t51 -124q0 -79 -51 -123.5t-151 -44.5t-151 44.5t-51 123.5zM370 374l83 309h625l82 -309h-790zM837 1792q0 80 50.5 124t151.5 44q100 0 151 -44t51 -124 q0 -79 -51 -123.5t-151 -44.5t-151 44.5t-51 123.5z" />
<glyph unicode="&#xc5;" horiz-adv-x="1532" d="M8 0l470 1516h577l469 -1516h-385l-394 1347h37l-392 -1347h-382zM370 374l83 309h625l82 -309h-790zM539 1834q0 95 64.5 157.5t162.5 62.5q99 0 163.5 -62.5t64.5 -157.5q0 -96 -64.5 -158t-163.5 -62q-98 0 -162.5 62t-64.5 158zM679 1834q0 -42 24.5 -66.5 t62.5 -24.5q39 0 63 24.5t24 66.5t-24 66t-63 24q-38 0 -62.5 -24t-24.5 -66z" />
<glyph unicode="&#xc6;" horiz-adv-x="2112" d="M8 0l471 1516h600v-312h-331l-355 -1204h-385zM371 373l83 311h626v-311h-709zM898 1516h1131v-312h-729l78 -893h661v-311h-1024zM1154 618v312h769v-312h-769z" />
<glyph unicode="&#xc7;" horiz-adv-x="1299" d="M78 754q0 256 97.5 430t286 263t460.5 89q86 0 167 -8t158 -26v-321q-70 15 -142 23t-150 8q-160 0 -263 -46.5t-153 -146.5t-50 -261q0 -164 49.5 -264t150.5 -145.5t255 -45.5q76 0 152 12t151 32v-320q-72 -22 -161.5 -34.5t-180.5 -12.5q-200 0 -354 45.5t-259.5 140 t-159.5 241t-54 347.5zM537 -290q46 -15 98 -23t94 -8q59 0 89.5 15.5t30.5 52.5t-31 53.5t-90 16.5h-51v203h179v-148l-83 51q137 0 205 -49.5t68 -139.5t-72 -143.5t-226 -53.5q-60 0 -112 8.5t-99 23.5v141z" />
<glyph unicode="&#xc8;" horiz-adv-x="1316" d="M123 0v1516h1110v-312h-722v-893h732v-311h-1120zM284 1946h403l186 -318h-346zM353 618v312h774v-312h-774z" />
<glyph unicode="&#xc9;" horiz-adv-x="1316" d="M123 0v1516h1110v-312h-722v-893h732v-311h-1120zM353 618v312h774v-312h-774zM525 1628l187 318h403l-243 -318h-347z" />
<glyph unicode="&#xca;" horiz-adv-x="1316" d="M123 0v1516h1110v-312h-722v-893h732v-311h-1120zM273 1628l266 318h323l265 -318h-285l-170 215h57l-170 -215h-286zM353 618v312h774v-312h-774z" />
<glyph unicode="&#xcb;" horiz-adv-x="1316" d="M123 0v1516h1110v-312h-722v-893h732v-311h-1120zM226 1792q0 80 51 124t151 44t151 -44t51 -124q0 -79 -51 -123.5t-151 -44.5t-151 44.5t-51 123.5zM353 618v312h774v-312h-774zM771 1792q0 80 50.5 124t151.5 44q100 0 151 -44t51 -124q0 -79 -51 -123.5t-151 -44.5 t-151 44.5t-51 123.5z" />
<glyph unicode="&#xcc;" horiz-adv-x="638" d="M-97 1946h403l186 -318h-346zM123 0v1516h393v-1516h-393z" />
<glyph unicode="&#xcd;" horiz-adv-x="638" d="M123 0v1516h393v-1516h-393zM144 1628l187 318h403l-243 -318h-347z" />
<glyph unicode="&#xce;" horiz-adv-x="638" d="M-108 1628l266 318h323l265 -318h-285l-170 215h57l-170 -215h-286zM123 0v1516h393v-1516h-393z" />
<glyph unicode="&#xcf;" horiz-adv-x="638" d="M-155 1792q0 80 51 124t151 44t151 -44t51 -124q0 -79 -51 -123.5t-151 -44.5t-151 44.5t-51 123.5zM123 0v1516h393v-1516h-393zM390 1792q0 80 50.5 124t151.5 44q100 0 151 -44t51 -124q0 -79 -51 -123.5t-151 -44.5t-151 44.5t-51 123.5z" />
<glyph unicode="&#xd0;" horiz-adv-x="1572" d="M4 656v248h771v-248h-771zM123 8v1471q74 16 159.5 28.5t175.5 19t176 6.5q427 0 644 -188t217 -587q0 -272 -103 -443.5t-311 -251t-522 -79.5q-66 0 -140 2.5t-149.5 8t-146.5 13.5zM516 305q39 -3 75.5 -3.5t73.5 -0.5q143 0 238 44.5t142.5 145t47.5 269.5 q0 167 -49 267t-144 145.5t-236 45.5q-33 0 -74 -4t-74 -11v-898z" />
<glyph unicode="&#xd1;" horiz-adv-x="1607" d="M123 0v1516h393l662 -1023h-63v1023h369v-1516h-393l-662 1023h64v-1023h-370zM399 1646v215q44 40 96 58t125 18q58 0 107 -13t95 -29q42 -13 84 -25t87 -12q67 0 116 17.5t99 54.5v-216q-43 -39 -95.5 -57t-125.5 -18q-57 0 -106 13.5t-96 27.5q-41 14 -83 25.5 t-88 11.5q-67 0 -116 -17.5t-99 -53.5z" />
<glyph unicode="&#xd2;" horiz-adv-x="1644" d="M78 758q0 260 92 433t259.5 259t392.5 86q226 0 393.5 -86.5t260 -259.5t92.5 -432t-92.5 -432t-260.5 -259.5t-393 -86.5t-392.5 86t-259.5 259t-92 433zM406 1946h403l186 -318h-346zM480 765q0 -169 40.5 -272.5t116.5 -150.5t185 -47q110 0 186 47t116 147.5 t40 261.5q0 168 -40.5 271t-117 151t-184.5 48t-184 -47t-117 -147t-41 -262z" />
<glyph unicode="&#xd3;" horiz-adv-x="1644" d="M78 758q0 260 92 433t259.5 259t392.5 86q226 0 393.5 -86.5t260 -259.5t92.5 -432t-92.5 -432t-260.5 -259.5t-393 -86.5t-392.5 86t-259.5 259t-92 433zM480 765q0 -169 40.5 -272.5t116.5 -150.5t185 -47q110 0 186 47t116 147.5t40 261.5q0 168 -40.5 271t-117 151 t-184.5 48t-184 -47t-117 -147t-41 -262zM647 1628l187 318h403l-243 -318h-347z" />
<glyph unicode="&#xd4;" horiz-adv-x="1644" d="M78 758q0 260 92 433t259.5 259t392.5 86q226 0 393.5 -86.5t260 -259.5t92.5 -432t-92.5 -432t-260.5 -259.5t-393 -86.5t-392.5 86t-259.5 259t-92 433zM395 1628l266 318h323l265 -318h-285l-170 215h57l-170 -215h-286zM480 765q0 -169 40.5 -272.5t116.5 -150.5 t185 -47q110 0 186 47t116 147.5t40 261.5q0 168 -40.5 271t-117 151t-184.5 48t-184 -47t-117 -147t-41 -262z" />
<glyph unicode="&#xd5;" horiz-adv-x="1644" d="M78 758q0 260 92 433t259.5 259t392.5 86q226 0 393.5 -86.5t260 -259.5t92.5 -432t-92.5 -432t-260.5 -259.5t-393 -86.5t-392.5 86t-259.5 259t-92 433zM418 1646v215q44 40 96 58t125 18q58 0 107 -13t95 -29q42 -13 84 -25t87 -12q67 0 116 17.5t99 54.5v-216 q-43 -39 -95.5 -57t-125.5 -18q-57 0 -106 13.5t-96 27.5q-41 14 -83 25.5t-88 11.5q-67 0 -116 -17.5t-99 -53.5zM480 765q0 -169 40.5 -272.5t116.5 -150.5t185 -47q110 0 186 47t116 147.5t40 261.5q0 168 -40.5 271t-117 151t-184.5 48t-184 -47t-117 -147t-41 -262z " />
<glyph unicode="&#xd6;" horiz-adv-x="1644" d="M78 758q0 260 92 433t259.5 259t392.5 86q226 0 393.5 -86.5t260 -259.5t92.5 -432t-92.5 -432t-260.5 -259.5t-393 -86.5t-392.5 86t-259.5 259t-92 433zM348 1792q0 80 51 124t151 44t151 -44t51 -124q0 -79 -51 -123.5t-151 -44.5t-151 44.5t-51 123.5zM480 765 q0 -169 40.5 -272.5t116.5 -150.5t185 -47q110 0 186 47t116 147.5t40 261.5q0 168 -40.5 271t-117 151t-184.5 48t-184 -47t-117 -147t-41 -262zM893 1792q0 80 50.5 124t151.5 44q100 0 151 -44t51 -124q0 -79 -51 -123.5t-151 -44.5t-151 44.5t-51 123.5z" />
<glyph unicode="&#xd7;" horiz-adv-x="1080" d="M78 521l257 257l-257 257l206 206l257 -257l257 257l206 -206l-258 -257l258 -257l-206 -206l-257 257l-257 -257z" />
<glyph unicode="&#xd8;" horiz-adv-x="1644" d="M78 758q0 260 92 433t259.5 259t392.5 86q226 0 393.5 -86.5t260 -259.5t92.5 -432t-92.5 -432t-260.5 -259.5t-393 -86.5t-392.5 86t-259.5 259t-92 433zM92 -3l1200 1520h258l-1201 -1520h-257zM480 765q0 -169 40.5 -272.5t116.5 -150.5t185 -47q110 0 186 47 t116 147.5t40 261.5q0 168 -40.5 271t-117 151t-184.5 48t-184 -47t-117 -147t-41 -262z" />
<glyph unicode="&#xd9;" horiz-adv-x="1559" d="M117 648v868h393v-906q0 -165 69 -237.5t205 -72.5q135 0 204 72.5t69 237.5v906h386v-868q0 -224 -69.5 -372.5t-216 -222t-373.5 -73.5q-231 0 -378.5 73.5t-218 222t-70.5 372.5zM368 1946h403l186 -318h-346z" />
<glyph unicode="&#xda;" horiz-adv-x="1559" d="M117 648v868h393v-906q0 -165 69 -237.5t205 -72.5q135 0 204 72.5t69 237.5v906h386v-868q0 -224 -69.5 -372.5t-216 -222t-373.5 -73.5q-231 0 -378.5 73.5t-218 222t-70.5 372.5zM609 1628l187 318h403l-243 -318h-347z" />
<glyph unicode="&#xdb;" horiz-adv-x="1559" d="M117 648v868h393v-906q0 -165 69 -237.5t205 -72.5q135 0 204 72.5t69 237.5v906h386v-868q0 -224 -69.5 -372.5t-216 -222t-373.5 -73.5q-231 0 -378.5 73.5t-218 222t-70.5 372.5zM357 1628l266 318h323l265 -318h-285l-170 215h57l-170 -215h-286z" />
<glyph unicode="&#xdc;" horiz-adv-x="1559" d="M117 648v868h393v-906q0 -165 69 -237.5t205 -72.5q135 0 204 72.5t69 237.5v906h386v-868q0 -224 -69.5 -372.5t-216 -222t-373.5 -73.5q-231 0 -378.5 73.5t-218 222t-70.5 372.5zM310 1792q0 80 51 124t151 44t151 -44t51 -124q0 -79 -51 -123.5t-151 -44.5t-151 44.5 t-51 123.5zM855 1792q0 80 50.5 124t151.5 44q100 0 151 -44t51 -124q0 -79 -51 -123.5t-151 -44.5t-151 44.5t-51 123.5z" />
<glyph unicode="&#xdd;" horiz-adv-x="1356" d="M-61 1516h415l389 -646h-107l385 646h385l-607 -1015l79 281v-782h-394v787l79 -286zM504 1628l187 318h403l-243 -318h-347z" />
<glyph unicode="&#xde;" horiz-adv-x="1389" d="M123 0v1516h393v-184q24 2 51 3.5t54 1.5q343 0 516.5 -134t173.5 -425q0 -276 -169 -417t-495 -141q-35 0 -66.5 1t-64.5 3v-224h-393zM516 519q34 -3 64 -5t68 -2q144 0 213 60.5t69 203.5q0 142 -69 205t-217 63q-38 0 -67.5 -2t-60.5 -7v-516z" />
<glyph unicode="&#xdf;" horiz-adv-x="1671" d="M28 817v306h313v-306h-313zM200 0v1038q0 199 82 342t236.5 219t371.5 76q175 0 308.5 -59.5t209.5 -183t76 -319.5q0 -69 -10.5 -132t-26.5 -125q-36 5 -76.5 6.5t-85.5 1.5q-98 0 -149 -12t-68 -31.5t-17 -42.5q0 -25 16.5 -40t59.5 -23l193 -34q148 -27 228 -101 t80 -229q0 -173 -141.5 -273t-407.5 -100q-81 0 -175.5 11t-177.5 31v279q50 -12 109.5 -22.5t121.5 -16t117 -5.5q116 0 157 22.5t41 60.5q0 30 -17 44.5t-59 23.5l-194 33q-160 29 -234 110.5t-74 220.5q0 169 135 264.5t400 95.5q20 0 52.5 -0.5t65 -2t54.5 -3.5 l-216 -175q13 47 20 96t7 100q0 96 -36.5 155t-102 86t-152.5 27q-115 0 -189.5 -40.5t-110 -122.5t-35.5 -207v-1043h-386z" />
<glyph unicode="&#xe0;" horiz-adv-x="1176" d="M54 310q0 163 115 255t373 108l213 14l43 -207l-214 -14q-80 -5 -116 -35.5t-36 -82.5q0 -50 32.5 -77.5t92.5 -27.5q35 0 72.5 10t68.5 36v381q0 68 -22.5 107.5t-75.5 57t-144 17.5q-66 0 -148.5 -11t-156.5 -32v286q87 24 188 35.5t188 11.5q191 0 312.5 -46.5 t178 -156t56.5 -295.5v-644h-315l-27 108h-17q-48 -69 -123.5 -99.5t-164.5 -30.5q-177 0 -275 93t-98 239zM118 1655h407l236 -400h-353z" />
<glyph unicode="&#xe1;" horiz-adv-x="1176" d="M54 310q0 163 115 255t373 108l213 14l43 -207l-214 -14q-80 -5 -116 -35.5t-36 -82.5q0 -50 32.5 -77.5t92.5 -27.5q35 0 72.5 10t68.5 36v381q0 68 -22.5 107.5t-75.5 57t-144 17.5q-66 0 -148.5 -11t-156.5 -32v286q87 24 188 35.5t188 11.5q191 0 312.5 -46.5 t178 -156t56.5 -295.5v-644h-315l-27 108h-17q-48 -69 -123.5 -99.5t-164.5 -30.5q-177 0 -275 93t-98 239zM408 1255l236 400h406l-289 -400h-353z" />
<glyph unicode="&#xe2;" horiz-adv-x="1176" d="M54 310q0 163 115 255t373 108l213 14l43 -207l-214 -14q-80 -5 -116 -35.5t-36 -82.5q0 -50 32.5 -77.5t92.5 -27.5q35 0 72.5 10t68.5 36v381q0 68 -22.5 107.5t-75.5 57t-144 17.5q-66 0 -148.5 -11t-156.5 -32v286q87 24 188 35.5t188 11.5q191 0 312.5 -46.5 t178 -156t56.5 -295.5v-644h-315l-27 108h-17q-48 -69 -123.5 -99.5t-164.5 -30.5q-177 0 -275 93t-98 239zM187 1255l242 400h311l242 -400h-271l-153 271h53l-154 -271h-270z" />
<glyph unicode="&#xe3;" horiz-adv-x="1176" d="M54 310q0 163 115 255t373 108l213 14l43 -207l-214 -14q-80 -5 -116 -35.5t-36 -82.5q0 -50 32.5 -77.5t92.5 -27.5q35 0 72.5 10t68.5 36v381q0 68 -22.5 107.5t-75.5 57t-144 17.5q-66 0 -148.5 -11t-156.5 -32v286q87 24 188 35.5t188 11.5q191 0 312.5 -46.5 t178 -156t56.5 -295.5v-644h-315l-27 108h-17q-48 -69 -123.5 -99.5t-164.5 -30.5q-177 0 -275 93t-98 239zM203 1302v235q83 83 214 83q51 0 97 -16.5t89 -35.5q39 -17 77.5 -31.5t77.5 -14.5q60 0 108.5 22t98.5 69v-237q-83 -83 -214 -83q-51 0 -96.5 17t-88.5 36 q-39 18 -77.5 32t-78.5 14q-60 0 -108 -21t-99 -69z" />
<glyph unicode="&#xe4;" horiz-adv-x="1176" d="M54 310q0 163 115 255t373 108l213 14l43 -207l-214 -14q-80 -5 -116 -35.5t-36 -82.5q0 -50 32.5 -77.5t92.5 -27.5q35 0 72.5 10t68.5 36v381q0 68 -22.5 107.5t-75.5 57t-144 17.5q-66 0 -148.5 -11t-156.5 -32v286q87 24 188 35.5t188 11.5q191 0 312.5 -46.5 t178 -156t56.5 -295.5v-644h-315l-27 108h-17q-48 -69 -123.5 -99.5t-164.5 -30.5q-177 0 -275 93t-98 239zM121 1453q0 88 52 138t150 50t150 -50t52 -138t-52 -138t-150 -50t-150 50t-52 138zM644 1453q0 88 51.5 138t150.5 50t150.5 -50t51.5 -138t-51.5 -138t-150.5 -50 q-98 0 -150 50t-52 138z" />
<glyph unicode="&#xe5;" horiz-adv-x="1176" d="M54 310q0 163 115 255t373 108l213 14l43 -207l-214 -14q-80 -5 -116 -35.5t-36 -82.5q0 -50 32.5 -77.5t92.5 -27.5q35 0 72.5 10t68.5 36v381q0 68 -22.5 107.5t-75.5 57t-144 17.5q-66 0 -148.5 -11t-156.5 -32v286q87 24 188 35.5t188 11.5q191 0 312.5 -46.5 t178 -156t56.5 -295.5v-644h-315l-27 108h-17q-48 -69 -123.5 -99.5t-164.5 -30.5q-177 0 -275 93t-98 239zM357 1469q0 96 64.5 158.5t162.5 62.5q99 0 163.5 -62t64.5 -159q0 -95 -64.5 -157.5t-163.5 -62.5q-98 0 -162.5 62.5t-64.5 157.5zM497 1470q0 -42 24.5 -66.5 t62.5 -24.5q39 0 63 24.5t24 66.5t-24 66.5t-63 24.5q-38 0 -62.5 -24.5t-24.5 -66.5z" />
<glyph unicode="&#xe6;" horiz-adv-x="1785" d="M54 314q0 105 51 185.5t160 125t283 44.5h221v-208h-181q-57 0 -91 -15t-49.5 -41t-15.5 -60q0 -49 33.5 -75.5t95.5 -26.5q53 0 100.5 20t96.5 72l105 -173q-84 -101 -186.5 -142.5t-213.5 -41.5q-136 0 -227 42t-136.5 117.5t-45.5 176.5zM152 809v286q93 25 184 36 t174 11q178 0 289.5 -50t163.5 -157.5t52 -280.5v-94l-313 3v104q0 70 -24.5 110t-79 57.5t-144.5 17.5q-63 0 -145.5 -11t-156.5 -32zM702 563l61 28q0 167 57.5 291t167 192t262.5 68t261.5 -68t166.5 -200t58 -323v-98h-725v216h426l-59 -20q0 95 -16 151t-49.5 79.5 t-84.5 23.5t-85 -23.5t-51.5 -79t-17.5 -149.5v-157q0 -85 26 -135t94 -71.5t192 -21.5q67 0 140 9t145 23v-285q-93 -18 -175.5 -26.5t-162.5 -8.5q-221 0 -360 61t-205 190.5t-66 333.5z" />
<glyph unicode="&#xe7;" horiz-adv-x="1016" d="M61 559q0 197 76.5 326t220.5 193t349 64q72 0 135.5 -6.5t122.5 -19.5v-301q-52 9 -102 14t-101 5q-106 0 -173.5 -28.5t-98.5 -88.5t-31 -155q0 -99 31 -160t92.5 -88.5t153.5 -27.5q53 0 106 8.5t123 26.5v-302q-60 -19 -135 -30t-154 -11q-199 0 -335.5 65t-208 194 t-71.5 322zM383 -290q41 -15 88.5 -23t82.5 -8q49 0 74 15.5t25 52.5q0 70 -100 70h-51v203h180v-148l-85 51q125 0 189.5 -51t64.5 -141q0 -89 -68.5 -141.5t-210.5 -52.5q-52 0 -100 8.5t-89 22.5v142z" />
<glyph unicode="&#xe8;" horiz-adv-x="1165" d="M61 563q0 181 63 311.5t185 199t298 68.5q168 0 280.5 -69t169.5 -202t57 -321v-97h-831v216h532l-57 -19q0 94 -16.5 150t-51.5 79t-87 23q-53 0 -88 -23t-52.5 -78.5t-17.5 -149.5v-157q0 -85 26.5 -135t95.5 -71.5t198 -21.5q67 0 140 9t145 23v-285 q-92 -18 -175 -26.5t-165 -8.5q-225 0 -368.5 61t-212 190t-68.5 334zM134 1655h407l236 -400h-353z" />
<glyph unicode="&#xe9;" horiz-adv-x="1165" d="M61 563q0 181 63 311.5t185 199t298 68.5q168 0 280.5 -69t169.5 -202t57 -321v-97h-831v216h532l-57 -19q0 94 -16.5 150t-51.5 79t-87 23q-53 0 -88 -23t-52.5 -78.5t-17.5 -149.5v-157q0 -85 26.5 -135t95.5 -71.5t198 -21.5q67 0 140 9t145 23v-285 q-92 -18 -175 -26.5t-165 -8.5q-225 0 -368.5 61t-212 190t-68.5 334zM424 1255l236 400h406l-289 -400h-353z" />
<glyph unicode="&#xea;" horiz-adv-x="1165" d="M61 563q0 181 63 311.5t185 199t298 68.5q168 0 280.5 -69t169.5 -202t57 -321v-97h-831v216h532l-57 -19q0 94 -16.5 150t-51.5 79t-87 23q-53 0 -88 -23t-52.5 -78.5t-17.5 -149.5v-157q0 -85 26.5 -135t95.5 -71.5t198 -21.5q67 0 140 9t145 23v-285 q-92 -18 -175 -26.5t-165 -8.5q-225 0 -368.5 61t-212 190t-68.5 334zM203 1255l242 400h311l242 -400h-271l-153 271h53l-154 -271h-270z" />
<glyph unicode="&#xeb;" horiz-adv-x="1165" d="M61 563q0 181 63 311.5t185 199t298 68.5q168 0 280.5 -69t169.5 -202t57 -321v-97h-831v216h532l-57 -19q0 94 -16.5 150t-51.5 79t-87 23q-53 0 -88 -23t-52.5 -78.5t-17.5 -149.5v-157q0 -85 26.5 -135t95.5 -71.5t198 -21.5q67 0 140 9t145 23v-285 q-92 -18 -175 -26.5t-165 -8.5q-225 0 -368.5 61t-212 190t-68.5 334zM137 1453q0 88 52 138t150 50t150 -50t52 -138t-52 -138t-150 -50t-150 50t-52 138zM660 1453q0 88 51.5 138t150.5 50t150.5 -50t51.5 -138t-51.5 -138t-150.5 -50q-98 0 -150 50t-52 138z" />
<glyph unicode="&#xec;" d="M-163 1655h407l236 -400h-353zM110 0v1123h386v-1123h-386z" />
<glyph unicode="&#xed;" d="M110 0v1123h386v-1123h-386zM127 1255l236 400h406l-289 -400h-353z" />
<glyph unicode="&#xee;" d="M-94 1255l242 400h311l242 -400h-271l-153 271h53l-154 -271h-270zM110 0v1123h386v-1123h-386z" />
<glyph unicode="&#xef;" d="M-160 1453q0 88 52 138t150 50t150 -50t52 -138t-52 -138t-150 -50t-150 50t-52 138zM110 0v1123h386v-1123h-386zM363 1453q0 88 51.5 138t150.5 50t150.5 -50t51.5 -138t-51.5 -138t-150.5 -50q-98 0 -150 50t-52 138z" />
<glyph unicode="&#xf0;" horiz-adv-x="1267" d="M61 558q0 195 68 322.5t188.5 190t279.5 62.5q89 0 171 -37t134 -121l-121 -19q-37 128 -117.5 252.5t-193.5 238t-245 208.5h453q113 -85 209 -202.5t168 -253t112 -281.5t40 -289q0 -226 -68 -370.5t-196.5 -213.5t-308.5 -69q-178 0 -306 66t-197.5 196t-69.5 320z M143 1401l990 181l41 -206l-990 -180zM449 558q0 -113 20.5 -177t62.5 -90t102 -26t101 26.5t62 90t21 173.5q0 114 -21 179t-62.5 91.5t-100.5 26.5q-60 0 -101 -26t-62.5 -90.5t-21.5 -177.5z" />
<glyph unicode="&#xf1;" horiz-adv-x="1284" d="M110 0v1123h317l26 -109h16q60 62 142 95t180 33q113 0 201 -45.5t139 -146.5t51 -265v-685h-386v660q0 86 -34.5 118.5t-96.5 32.5q-32 0 -63.5 -7.5t-59 -23.5t-47.5 -40v-740h-385zM265 1302v235q83 83 214 83q51 0 97 -16.5t89 -35.5q39 -17 77.5 -31.5t77.5 -14.5 q60 0 108.5 22t98.5 69v-237q-83 -83 -214 -83q-51 0 -96.5 17t-88.5 36q-39 18 -77.5 32t-78.5 14q-60 0 -108 -21t-99 -69z" />
<glyph unicode="&#xf2;" horiz-adv-x="1267" d="M61 558q0 194 68 323.5t196 195t309 65.5t309 -66t195 -195.5t67 -320.5q0 -193 -69 -322t-197.5 -194.5t-304.5 -65.5t-304.5 65.5t-198.5 194.5t-70 320zM167 1655h407l236 -400h-353zM449 560q0 -114 21.5 -178t62.5 -90t101 -26q59 0 100.5 26t62.5 89.5t21 176.5 q0 115 -21.5 179t-63 90t-99.5 26q-59 0 -100.5 -25.5t-63 -89.5t-21.5 -178z" />
<glyph unicode="&#xf3;" horiz-adv-x="1267" d="M61 558q0 194 68 323.5t196 195t309 65.5t309 -66t195 -195.5t67 -320.5q0 -193 -69 -322t-197.5 -194.5t-304.5 -65.5t-304.5 65.5t-198.5 194.5t-70 320zM449 560q0 -114 21.5 -178t62.5 -90t101 -26q59 0 100.5 26t62.5 89.5t21 176.5q0 115 -21.5 179t-63 90 t-99.5 26q-59 0 -100.5 -25.5t-63 -89.5t-21.5 -178zM457 1255l236 400h406l-289 -400h-353z" />
<glyph unicode="&#xf4;" horiz-adv-x="1267" d="M61 558q0 194 68 323.5t196 195t309 65.5t309 -66t195 -195.5t67 -320.5q0 -193 -69 -322t-197.5 -194.5t-304.5 -65.5t-304.5 65.5t-198.5 194.5t-70 320zM236 1255l242 400h311l242 -400h-271l-153 271h53l-154 -271h-270zM449 560q0 -114 21.5 -178t62.5 -90t101 -26 q59 0 100.5 26t62.5 89.5t21 176.5q0 115 -21.5 179t-63 90t-99.5 26q-59 0 -100.5 -25.5t-63 -89.5t-21.5 -178z" />
<glyph unicode="&#xf5;" horiz-adv-x="1267" d="M61 558q0 194 68 323.5t196 195t309 65.5t309 -66t195 -195.5t67 -320.5q0 -193 -69 -322t-197.5 -194.5t-304.5 -65.5t-304.5 65.5t-198.5 194.5t-70 320zM252 1302v235q83 83 214 83q51 0 97 -16.5t89 -35.5q39 -17 77.5 -31.5t77.5 -14.5q60 0 108.5 22t98.5 69v-237 q-83 -83 -214 -83q-51 0 -96.5 17t-88.5 36q-39 18 -77.5 32t-78.5 14q-60 0 -108 -21t-99 -69zM449 560q0 -114 21.5 -178t62.5 -90t101 -26q59 0 100.5 26t62.5 89.5t21 176.5q0 115 -21.5 179t-63 90t-99.5 26q-59 0 -100.5 -25.5t-63 -89.5t-21.5 -178z" />
<glyph unicode="&#xf6;" horiz-adv-x="1267" d="M61 558q0 194 68 323.5t196 195t309 65.5t309 -66t195 -195.5t67 -320.5q0 -193 -69 -322t-197.5 -194.5t-304.5 -65.5t-304.5 65.5t-198.5 194.5t-70 320zM170 1453q0 88 52 138t150 50t150 -50t52 -138t-52 -138t-150 -50t-150 50t-52 138zM449 560q0 -114 21.5 -178 t62.5 -90t101 -26q59 0 100.5 26t62.5 89.5t21 176.5q0 115 -21.5 179t-63 90t-99.5 26q-59 0 -100.5 -25.5t-63 -89.5t-21.5 -178zM693 1453q0 88 51.5 138t150.5 50t150.5 -50t51.5 -138t-51.5 -138t-150.5 -50q-98 0 -150 50t-52 138z" />
<glyph unicode="&#xf7;" horiz-adv-x="1135" d="M109 632v293h918v-293h-918zM345 347q0 96 59.5 151.5t163.5 55.5q103 0 163 -57t60 -150t-61.5 -150t-161.5 -57q-101 0 -162 55.5t-61 151.5zM345 1209q0 97 59.5 152t163.5 55q103 0 163 -56t60 -151q0 -93 -61.5 -150t-161.5 -57q-101 0 -162 56t-61 151z" />
<glyph unicode="&#xf8;" horiz-adv-x="1267" d="M61 558q0 194 68 323.5t196 195t309 65.5q76 0 142.5 -12.5t122.5 -37.5l38 52h233l-112 -157q72 -73 109.5 -180.5t37.5 -246.5q0 -193 -69 -322t-197.5 -194.5t-304.5 -65.5q-77 0 -144.5 13t-124.5 40l-37 -50h-235l114 157q-70 73 -108 178t-38 242zM437 560 q0 -33 4 -61t13 -49l274 379q-19 15 -42.5 22t-51.5 7q-62 0 -106.5 -26t-67.5 -91t-23 -181zM536 294q19 -17 44 -25t54 -8q63 0 106.5 26.5t66.5 91t23 179.5q0 37 -4 67t-12 55z" />
<glyph unicode="&#xf9;" horiz-adv-x="1274" d="M102 435v688h385v-660q0 -86 35 -119t91 -33q30 0 61 8.5t58.5 24t46.5 38.5v741h386v-1123h-317l-26 110h-15q-61 -63 -139.5 -96t-168.5 -33q-115 0 -204.5 45.5t-141 145t-51.5 263.5zM167 1655h407l236 -400h-353z" />
<glyph unicode="&#xfa;" horiz-adv-x="1274" d="M102 435v688h385v-660q0 -86 35 -119t91 -33q30 0 61 8.5t58.5 24t46.5 38.5v741h386v-1123h-317l-26 110h-15q-61 -63 -139.5 -96t-168.5 -33q-115 0 -204.5 45.5t-141 145t-51.5 263.5zM457 1255l236 400h406l-289 -400h-353z" />
<glyph unicode="&#xfb;" horiz-adv-x="1274" d="M102 435v688h385v-660q0 -86 35 -119t91 -33q30 0 61 8.5t58.5 24t46.5 38.5v741h386v-1123h-317l-26 110h-15q-61 -63 -139.5 -96t-168.5 -33q-115 0 -204.5 45.5t-141 145t-51.5 263.5zM236 1255l242 400h311l242 -400h-271l-153 271h53l-154 -271h-270z" />
<glyph unicode="&#xfc;" horiz-adv-x="1274" d="M102 435v688h385v-660q0 -86 35 -119t91 -33q30 0 61 8.5t58.5 24t46.5 38.5v741h386v-1123h-317l-26 110h-15q-61 -63 -139.5 -96t-168.5 -33q-115 0 -204.5 45.5t-141 145t-51.5 263.5zM170 1453q0 88 52 138t150 50t150 -50t52 -138t-52 -138t-150 -50t-150 50 t-52 138zM693 1453q0 88 51.5 138t150.5 50t150.5 -50t51.5 -138t-51.5 -138t-150.5 -50q-98 0 -150 50t-52 138z" />
<glyph unicode="&#xfd;" horiz-adv-x="1233" d="M-7 1123h401l338 -1123h-356zM326 -451l155 451l134 309l248 814h378l-540 -1574h-375zM441 1255l236 400h406l-289 -400h-353z" />
<glyph unicode="&#xfe;" horiz-adv-x="1296" d="M110 -451v2106h385v-639h18q48 61 119 93.5t165 32.5q118 0 217.5 -59.5t160 -183t60.5 -315.5q0 -194 -71 -329t-211.5 -206t-346.5 -71q-30 0 -58 2.5t-53 4.5v-436h-385zM495 279q24 -3 53 -7t57 -4q122 0 182.5 65t60.5 221q0 106 -25 166t-70.5 84t-107.5 24 q-39 0 -80 -11.5t-70 -38.5v-499z" />
<glyph unicode="&#xff;" horiz-adv-x="1233" d="M-7 1123h401l338 -1123h-356zM154 1453q0 88 52 138t150 50t150 -50t52 -138t-52 -138t-150 -50t-150 50t-52 138zM326 -451l155 451l134 309l248 814h378l-540 -1574h-375zM677 1453q0 88 51.5 138t150.5 50t150.5 -50t51.5 -138t-51.5 -138t-150.5 -50q-98 0 -150 50 t-52 138z" />
<glyph unicode="&#x152;" horiz-adv-x="2203" d="M78 758q0 265 103.5 436t303.5 252.5t491 81.5q80 0 165.5 -6t165.5 -6h814v-312h-690v-893h700v-311h-822q-53 0 -110 -3l-114 -6t-107 -3q-303 0 -503 81t-298.5 250.5t-98.5 438.5zM479 756q0 -164 47 -263.5t140 -143.5t231 -44q35 0 72 0.5t73 3.5v896 q-39 3 -74.5 4t-72.5 1q-137 0 -230 -44.5t-139.5 -144t-46.5 -265.5zM1275 618v312h739v-312h-739z" />
<glyph unicode="&#x153;" horiz-adv-x="1914" d="M61 558q0 194 67.5 323.5t191 195t295.5 65.5q176 0 291 -72t171 -202.5t56 -307.5q0 -180 -58 -310.5t-173 -201t-287 -70.5q-167 0 -291 65.5t-193.5 194.5t-69.5 320zM449 560q0 -114 21.5 -178t62.5 -90t100 -26q60 0 101 26t62 89.5t21 176.5q0 115 -21.5 179 t-62.5 90t-100 26q-58 0 -99.5 -25.5t-63 -89.5t-21.5 -178zM858 563l33 28q0 162 58 286t167 194.5t263 70.5q153 0 261.5 -68t166.5 -200t58 -323v-98h-725v216h426l-59 -20q0 95 -16 151t-49.5 79.5t-84.5 23.5t-85.5 -23.5t-51.5 -79t-17 -149.5v-157q0 -85 26 -135 t94 -71.5t193 -21.5q67 0 140 9t144 23v-285q-93 -18 -175.5 -26.5t-162.5 -8.5q-221 0 -353.5 63t-191.5 193t-59 329z" />
<glyph unicode="&#x178;" horiz-adv-x="1356" d="M-61 1516h415l389 -646h-107l385 646h385l-607 -1015l79 281v-782h-394v787l79 -286zM205 1792q0 80 51 124t151 44t151 -44t51 -124q0 -79 -51 -123.5t-151 -44.5t-151 44.5t-51 123.5zM750 1792q0 80 50.5 124t151.5 44q100 0 151 -44t51 -124q0 -79 -51 -123.5 t-151 -44.5t-151 44.5t-51 123.5z" />
<glyph unicode="&#x2c6;" horiz-adv-x="1201" d="M217 1255l242 400h311l242 -400h-271l-153 271h53l-154 -271h-270z" />
<glyph unicode="&#x2dc;" horiz-adv-x="1201" d="M233 1302v235q83 83 214 83q51 0 97 -16.5t89 -35.5q39 -17 77.5 -31.5t77.5 -14.5q60 0 108.5 22t98.5 69v-237q-83 -83 -214 -83q-51 0 -96.5 17t-88.5 36q-39 18 -77.5 32t-78.5 14q-60 0 -108 -21t-99 -69z" />
<glyph unicode="&#x2000;" horiz-adv-x="1027" />
<glyph unicode="&#x2001;" horiz-adv-x="2054" />
<glyph unicode="&#x2002;" horiz-adv-x="1027" />
<glyph unicode="&#x2003;" horiz-adv-x="2054" />
<glyph unicode="&#x2004;" horiz-adv-x="684" />
<glyph unicode="&#x2005;" horiz-adv-x="513" />
<glyph unicode="&#x2006;" horiz-adv-x="342" />
<glyph unicode="&#x2007;" horiz-adv-x="342" />
<glyph unicode="&#x2008;" horiz-adv-x="256" />
<glyph unicode="&#x2009;" horiz-adv-x="410" />
<glyph unicode="&#x200a;" horiz-adv-x="114" />
<glyph unicode="&#x2010;" horiz-adv-x="956" d="M109 427v311h740v-311h-740z" />
<glyph unicode="&#x2011;" horiz-adv-x="956" d="M109 427v311h740v-311h-740z" />
<glyph unicode="&#x2012;" horiz-adv-x="956" d="M109 427v311h740v-311h-740z" />
<glyph unicode="&#x2013;" horiz-adv-x="921" d="M0 450v265h922v-265h-922z" />
<glyph unicode="&#x2014;" horiz-adv-x="1843" d="M0 450v265h1843v-265h-1843z" />
<glyph unicode="&#x2018;" d="M58 1153q0 132 50 265t132 237h218q-55 -114 -86 -211t-31 -197l-86 67h47q112 0 179 -61.5t67 -168.5q0 -108 -64 -168t-167 -60q-129 0 -194 74.5t-65 222.5z" />
<glyph unicode="&#x2019;" d="M56 1445q0 109 65 169t176 60q122 0 186 -74.5t64 -223.5q0 -131 -50 -264t-131 -238h-220q56 115 87 212.5t31 196.5l86 -68h-48q-110 0 -178 62t-68 168z" />
<glyph unicode="&#x201a;" d="M56 210q0 109 65 169t176 60q122 0 186 -74.5t64 -223.5q0 -131 -50 -264t-131 -237h-220q56 115 87 212t31 196l86 -67h-48q-110 0 -178 61.5t-68 167.5z" />
<glyph unicode="&#x201c;" horiz-adv-x="1157" d="M58 1153q0 132 50 265t132 237h218q-55 -114 -86 -211t-31 -197l-86 67h47q112 0 179 -61.5t67 -168.5q0 -108 -64 -168t-167 -60q-129 0 -194 74.5t-65 222.5zM610 1153q0 132 50 265t132 237h218q-55 -114 -86 -211t-31 -197l-86 67h47q112 0 179 -61.5t67 -168.5 q0 -108 -64 -168t-167 -60q-129 0 -194 74.5t-65 222.5z" />
<glyph unicode="&#x201d;" horiz-adv-x="1157" d="M56 1445q0 109 65 169t176 60q122 0 186 -74.5t64 -223.5q0 -131 -50 -264t-131 -238h-220q56 115 87 212.5t31 196.5l86 -68h-48q-110 0 -178 62t-68 168zM608 1445q0 109 65 169t176 60q122 0 186 -74.5t64 -223.5q0 -131 -50 -264t-131 -238h-220q56 115 87 212.5 t31 196.5l86 -68h-48q-110 0 -178 62t-68 168z" />
<glyph unicode="&#x201e;" horiz-adv-x="1157" d="M56 210q0 109 65 169t176 60q122 0 186 -74.5t64 -223.5q0 -131 -50 -264t-131 -237h-220q56 115 87 212t31 196l86 -67h-48q-110 0 -178 61.5t-68 167.5zM608 210q0 109 65 169t176 60q122 0 186 -74.5t64 -223.5q0 -131 -50 -264t-131 -237h-220q56 115 87 212t31 196 l86 -67h-48q-110 0 -178 61.5t-68 167.5z" />
<glyph unicode="&#x2022;" horiz-adv-x="797" d="M56 573q0 99 45.5 176.5t123.5 121.5t174 44q95 0 172.5 -44t123 -121t45.5 -177q0 -99 -45 -175.5t-123 -121.5t-174 -45q-95 0 -173 45t-123.5 121.5t-45.5 175.5z" />
<glyph unicode="&#x2026;" horiz-adv-x="1773" d="M56 210q0 106 66 167.5t181 61.5q114 0 179.5 -63t65.5 -166t-66.5 -166t-178.5 -63q-113 0 -180 61.5t-67 167.5zM641 210q0 106 66 167.5t181 61.5q114 0 179.5 -63t65.5 -166t-66.5 -166t-178.5 -63q-113 0 -180 61.5t-67 167.5zM1225 210q0 106 66 167.5t181 61.5 q114 0 179.5 -63t65.5 -166t-66.5 -166t-178.5 -63q-113 0 -180 61.5t-67 167.5z" />
<glyph unicode="&#x202f;" horiz-adv-x="410" />
<glyph unicode="&#x2039;" horiz-adv-x="756" d="M76 583l256 447h390l-255 -447l255 -449h-390z" />
<glyph unicode="&#x203a;" horiz-adv-x="756" d="M35 134l256 449l-256 447h391l255 -447l-255 -449h-391z" />
<glyph unicode="&#x205f;" horiz-adv-x="513" />
<glyph unicode="&#x20ac;" horiz-adv-x="1469" d="M65 485v224h1152v-224h-1152zM65 827v224h1152v-224h-1152zM248 754q0 256 99.5 430t288.5 263t457 89q86 0 167 -8t157 -26v-312q-69 15 -141.5 23.5t-150.5 8.5q-163 0 -268 -47.5t-156.5 -149.5t-51.5 -267q0 -168 50.5 -270t153 -148t262.5 -46q75 0 151 12t151 33 v-312q-72 -22 -161.5 -34.5t-179.5 -12.5q-197 0 -351 45.5t-260.5 140t-161.5 241t-55 347.5z" />
<glyph unicode="&#x2122;" horiz-adv-x="2318" d="M13 1273v243h913v-243h-302v-781h-308v781h-303zM1011 492v1024h374l239 -593h-30l230 593h375v-1024h-288v755h55l-239 -604h-245l-252 604h68v-755h-287z" />
<glyph unicode="&#x25fc;" horiz-adv-x="1121" d="M0 0v1121h1121v-1121h-1121z" />
<glyph unicode="&#xfb01;" horiz-adv-x="1459" d="M28 823v300h830v-300h-830zM200 0v1187q0 150 61 259t173.5 169t271.5 60q45 0 83 -3.5t75 -12.5v-298q-25 7 -48 9t-48 2q-92 0 -138.5 -42t-46.5 -123v-1207h-383zM923 1453q0 93 56.5 144t177.5 51q120 0 176.5 -51t56.5 -144t-56.5 -144t-176.5 -51q-121 0 -177.5 51 t-56.5 144zM964 0v1123h386v-1123h-386z" />
<glyph unicode="&#xfb02;" horiz-adv-x="1458" d="M28 823v300h830v-300h-830zM200 0v1187q0 150 61 259t173.5 169t271.5 60q45 0 83 -3.5t75 -12.5v-298q-25 7 -48 9t-48 2q-92 0 -138.5 -42t-46.5 -123v-1207h-383zM964 0v1655h385v-1655h-385z" />
</font>
</defs>
</svg>
