<?xml version="1.0" standalone="no"?>
<!DOCTYPE svg PUBLIC "-//W3C//DTD SVG 1.1//EN" "http://www.w3.org/Graphics/SVG/1.1/DTD/svg11.dtd" >
<svg xmlns="http://www.w3.org/2000/svg" xmlns:xlink="http://www.w3.org/1999/xlink" version="1.1">
<metadata></metadata>
<defs>
<font id="encode_sansregular" horiz-adv-x="1054" >
<font-face units-per-em="2048" ascent="1638" descent="-410" />
<missing-glyph horiz-adv-x="500" />
<glyph horiz-adv-x="0" />
<glyph horiz-adv-x="682" />
<glyph horiz-adv-x="0" />
<glyph horiz-adv-x="0" />
<glyph unicode="&#xd;" horiz-adv-x="500" />
<glyph unicode=" "  horiz-adv-x="500" />
<glyph unicode="&#x09;" horiz-adv-x="500" />
<glyph unicode="&#xa0;" horiz-adv-x="500" />
<glyph unicode="!" horiz-adv-x="513" d="M139 96q0 51 32 81.5t86 30.5q53 0 85.5 -31t32.5 -81q0 -49 -33 -79t-85 -30q-53 0 -85.5 30t-32.5 79zM170 939v577h173v-577l-34 -558h-104z" />
<glyph unicode="&#x22;" horiz-adv-x="774" d="M129 1655h170l-35 -718h-99zM474 1655h170l-35 -718h-99z" />
<glyph unicode="#" horiz-adv-x="1184" d="M102 468v133h980v-133h-980zM102 914v134h980v-134h-980zM252 0l158 1516h135l-158 -1516h-135zM640 0l158 1516h134l-158 -1516h-134z" />
<glyph unicode="$" horiz-adv-x="1088" d="M76 1115q0 196 136 308t408 112q85 0 170.5 -12t155.5 -33v-143q-78 25 -159.5 36t-161.5 11q-132 0 -216.5 -32t-124.5 -92.5t-40 -145.5q0 -112 62.5 -173t215.5 -102l83 -21q139 -36 229.5 -91.5t134.5 -136t44 -189.5q0 -137 -63.5 -233t-185 -146.5t-294.5 -50.5 q-88 0 -185.5 15t-185.5 45v142q63 -20 128.5 -34t127 -20.5t116.5 -6.5q127 0 210 31.5t123 93.5t40 153q0 116 -68 177t-232 104l-82 21q-194 49 -290 149t-96 264zM468 22l154 7v-275h-154v268zM468 1500v261h154v-261h-154z" />
<glyph unicode="%" horiz-adv-x="1890" d="M106 1062q0 168 44.5 272.5t122.5 152.5t182 48q103 0 182 -48t123 -152.5t44 -272.5q0 -169 -44.5 -273t-123.5 -152t-181 -48t-180.5 48t-123.5 152t-45 273zM245 1063q0 -134 26.5 -212.5t74 -112t109.5 -33.5t109.5 32.5t74.5 110.5t27 212q0 135 -27 213.5 t-74.5 111.5t-109.5 33t-109.5 -32.5t-74 -110.5t-26.5 -212zM541 0l665 1516h144l-665 -1516h-144zM1087 455q0 169 44.5 272.5t122.5 152t182 48.5q103 0 181.5 -48.5t122.5 -152t44 -272.5t-44 -273t-123 -152t-181 -48t-181 48t-123.5 152t-44.5 273zM1225 456 q0 -134 27 -212.5t74.5 -112.5t109.5 -34t109 33t74.5 110.5t27.5 212.5t-27.5 213.5t-74.5 111.5t-109 33t-109.5 -33t-74.5 -110.5t-27 -211.5z" />
<glyph unicode="&#x26;" horiz-adv-x="1531" d="M141 413q0 97 34.5 177.5t98 141.5t151.5 98l87 -84q-101 -50 -152 -129t-51 -187q0 -96 43 -168t131.5 -111.5t226.5 -39.5q136 0 235 44.5t152.5 139t53.5 246.5q0 66 -11 137.5t-32 138.5h141q20 -68 30 -139t10 -136q0 -184 -70.5 -308.5t-204 -188t-320.5 -63.5 q-183 0 -306 54t-185 151.5t-62 225.5zM299 1102q0 206 133.5 319.5t406.5 113.5q71 0 133 -7.5t115 -21.5v-143q-56 15 -117 23t-124 8q-134 0 -217.5 -34.5t-122.5 -100t-39 -159.5q0 -66 21 -122t75 -117t154 -140l815 -619l-82 -122l-815 618q-130 98 -203.5 179.5 t-103 159t-29.5 165.5z" />
<glyph unicode="'" horiz-adv-x="429" d="M129 1655h170l-35 -718h-99z" />
<glyph unicode="(" horiz-adv-x="674" d="M128 602q0 295 83.5 562t266.5 491h176q-126 -159 -204.5 -328t-115 -350t-36.5 -375t36.5 -375t115 -350t204.5 -328h-176q-183 225 -266.5 491.5t-83.5 561.5z" />
<glyph unicode=")" horiz-adv-x="674" d="M20 -451q126 159 205 328t115.5 350.5t36.5 374.5q0 194 -36.5 375t-115.5 350t-205 328h177q184 -224 267 -491t83 -562t-83 -561t-267 -492h-177z" />
<glyph unicode="*" horiz-adv-x="940" d="M31 1310l38 113l177 -57l187 -86l-23 205v170h120v-170l-23 -205l187 86l178 57l37 -113l-179 -59l-199 -40l139 -151l103 -141l-97 -72l-105 141l-101 182l-101 -182l-104 -141l-98 72l104 141l138 151l-199 40z" />
<glyph unicode="+" horiz-adv-x="1101" d="M153 712v133h328v347h140v-347h328v-133h-328v-347h-140v347h-328z" />
<glyph unicode="," horiz-adv-x="472" d="M119 101q0 52 30.5 82.5t83.5 30.5q56 0 88 -36.5t32 -111.5q0 -106 -28.5 -206.5t-73.5 -182.5h-97q36 95 56 178.5t20 167.5l29 -36h-22q-53 0 -85.5 31.5t-32.5 82.5z" />
<glyph unicode="-" horiz-adv-x="859" d="M153 507v138h554v-138h-554z" />
<glyph unicode="." horiz-adv-x="472" d="M119 100q0 52 31.5 83t86.5 31q53 0 85 -31t32 -83q0 -51 -32.5 -82t-84.5 -31q-53 0 -85.5 30.5t-32.5 82.5z" />
<glyph unicode="/" horiz-adv-x="630" d="M0 -246l469 1901h162l-468 -1901h-163z" />
<glyph unicode="0" horiz-adv-x="1278" d="M118 758q0 282 63.5 452.5t180 247.5t277.5 77q162 0 278.5 -77t180 -248t63.5 -452q0 -282 -64 -453t-181 -247.5t-277 -76.5q-159 0 -276 76.5t-181 247.5t-64 453zM285 761q0 -246 43.5 -384.5t123 -195.5t188.5 -57q108 0 187.5 56.5t123 194t43.5 380.5 q0 246 -43.5 384.5t-123 195.5t-187.5 57q-109 0 -188.5 -56.5t-123 -194t-43.5 -380.5z" />
<glyph unicode="1" horiz-adv-x="748" d="M26 1043v164l434 314h105v-1521h-166v1394l61 -39z" />
<glyph unicode="2" horiz-adv-x="1009" d="M44 1333v144q44 17 100 30.5t118.5 20.5t123.5 7q229 0 353 -97t124 -308q0 -81 -22 -159t-72 -166.5t-136 -200.5l-385 -508l-14 46h711v-142h-884v91l435 578q74 98 118 175.5t63.5 143t19.5 129.5q0 147 -80.5 212t-243.5 65q-89 0 -171.5 -15.5t-157.5 -45.5z" />
<glyph unicode="3" horiz-adv-x="1036" d="M53 39v135q88 -29 182 -44t180 -15q195 0 291.5 77t96.5 225q0 138 -90.5 215.5t-288.5 77.5h-181v135h99q204 0 307 76.5t103 218.5q0 127 -83.5 194t-247.5 67q-84 0 -168 -14t-164 -44v136q47 17 104.5 30t119 19.5t121.5 6.5q234 0 356.5 -101t122.5 -284 q0 -146 -88.5 -245t-243.5 -131l1 23q185 -24 283.5 -124t98.5 -263q0 -135 -61.5 -231t-182.5 -147t-301 -51q-95 0 -188.5 14.5t-177.5 43.5z" />
<glyph unicode="4" horiz-adv-x="1209" d="M49 364v92l588 1060h167l-588 -1061l-23 44h974v-135h-1118zM800 0v499l20 505h133v-1004h-153z" />
<glyph unicode="5" horiz-adv-x="1047" d="M80 40v135q86 -28 180 -43.5t183 -15.5q195 0 290.5 77.5t95.5 231.5q0 99 -47.5 165t-157 103t-297.5 47l-191 12l51 764h740v-136h-661l75 68l-43 -636l-105 72l190 -11q214 -13 348 -65t196 -146.5t62 -233.5q0 -218 -138 -332.5t-405 -114.5q-96 0 -190 15.5 t-176 43.5z" />
<glyph unicode="6" horiz-adv-x="1178" d="M129 709q0 286 74.5 468.5t217.5 270t349 87.5q74 0 145 -10.5t132 -34.5v-137q-61 24 -132 35t-139 11q-160 0 -267.5 -67t-161.5 -210.5t-54 -372.5v-59q0 -166 25.5 -277.5t73.5 -177.5t115.5 -94.5t149.5 -28.5q87 0 156 32.5t108.5 101.5t39.5 178q0 111 -41.5 181 t-118 102.5t-178.5 32.5q-62 0 -129.5 -15t-129 -48.5t-105.5 -87.5v139q65 68 171 105.5t219 37.5q137 0 242.5 -48t165.5 -145.5t60 -248.5q0 -146 -59 -246.5t-163 -151t-239 -50.5q-118 0 -214.5 39t-166.5 125t-108 225.5t-38 338.5z" />
<glyph unicode="7" horiz-adv-x="962" d="M12 1373v143h890v-92l-555 -1424h-173l566 1425l48 -52h-776z" />
<glyph unicode="8" horiz-adv-x="1278" d="M101 380q0 146 86.5 252.5t241.5 158.5l125 -53q-143 -41 -218 -132.5t-75 -210.5q0 -139 98 -213t290 -74q179 0 273.5 71t94.5 201q0 83 -36 140.5t-120 98t-228 75.5q-177 42 -283 104t-152.5 146.5t-46.5 195.5q0 120 57 208.5t167.5 137.5t267.5 49 q227 0 355.5 -102.5t128.5 -280.5q0 -90 -33 -166t-99.5 -134t-168.5 -98l-116 51q142 60 205 138.5t63 196.5q0 131 -88 199.5t-249 68.5q-164 0 -246.5 -71t-82.5 -192q0 -81 34 -139.5t118 -102.5t233 -80q177 -44 282 -103.5t151.5 -140t46.5 -189.5q0 -122 -61 -214 t-179 -143.5t-289 -51.5q-180 0 -302 48t-183.5 137t-61.5 214z" />
<glyph unicode="9" horiz-adv-x="1178" d="M62 1087q0 146 59 246.5t163 151t239 50.5q118 0 214.5 -39t166.5 -125t108 -225.5t38 -338.5q0 -286 -74.5 -468.5t-217.5 -270t-349 -87.5q-74 0 -145 10.5t-132 34.5v137q61 -24 132 -35t139 -11q160 0 267.5 67t161.5 210.5t54 372.5v59q0 166 -25.5 277.5 t-73.5 177.5t-115.5 94.5t-149.5 28.5q-87 0 -156 -32.5t-108.5 -101.5t-39.5 -178q0 -111 41.5 -181t118 -102.5t178.5 -32.5q62 0 129.5 15t129 48.5t105.5 87.5v-139q-65 -68 -171 -105.5t-219 -37.5q-137 0 -242.5 48t-165.5 145.5t-60 248.5z" />
<glyph unicode=":" horiz-adv-x="472" d="M119 100q0 52 31.5 83t86.5 31q53 0 85 -31t32 -83q0 -51 -32.5 -82t-84.5 -31q-53 0 -85.5 30.5t-32.5 82.5zM119 1009q0 52 31.5 83t86.5 31q53 0 85 -31t32 -83q0 -51 -32.5 -82t-84.5 -31q-53 0 -85.5 30.5t-32.5 82.5z" />
<glyph unicode=";" horiz-adv-x="472" d="M119 101q0 52 30.5 82.5t83.5 30.5q56 0 88 -36.5t32 -111.5q0 -106 -28.5 -206.5t-73.5 -182.5h-97q36 95 56 178.5t20 167.5l29 -36h-22q-53 0 -85.5 31.5t-32.5 82.5zM119 1009q0 52 31.5 83t86.5 31q53 0 85 -31t32 -83q0 -51 -32.5 -82t-84.5 -31q-53 0 -85.5 30.5 t-32.5 82.5z" />
<glyph unicode="&#x3c;" horiz-adv-x="1101" d="M153 705v147l796 336v-139l-688 -285v30l688 -286v-139z" />
<glyph unicode="=" horiz-adv-x="1101" d="M153 510v133h796v-133h-796zM153 913v134h796v-134h-796z" />
<glyph unicode="&#x3e;" horiz-adv-x="1101" d="M153 369v139l688 286v-30l-688 285v139l796 -336v-147z" />
<glyph unicode="?" horiz-adv-x="925" d="M40 1341v138q48 17 105.5 30t119 19.5t121.5 6.5q233 0 356 -101t123 -285q0 -109 -38.5 -190.5t-122.5 -144.5t-221 -116l-15 -329h-104l-29 416q140 43 220.5 93.5t113.5 114t33 146.5q0 127 -82.5 193t-247.5 66q-84 0 -167.5 -14t-164.5 -43zM298 96q0 51 32 81.5 t86 30.5q53 0 85.5 -31t32.5 -81q0 -48 -32 -78.5t-86 -30.5q-53 0 -85.5 30t-32.5 79z" />
<glyph unicode="@" horiz-adv-x="1961" d="M108 532q0 348 103.5 569.5t301 327t475.5 105.5q281 0 474.5 -102.5t292.5 -311.5t99 -528q0 -221 -48.5 -355.5t-131.5 -194.5t-186 -60q-95 0 -155.5 39.5t-86.5 109.5h-12q-51 -74 -137 -111.5t-186 -37.5q-157 0 -247 80t-90 223q0 145 95 226t301 100l306 35 l12 -107l-307 -34q-125 -14 -183 -63.5t-58 -140.5q0 -95 54.5 -143t157.5 -48q72 0 147.5 31t131.5 105v488q0 99 -31.5 154.5t-94.5 78t-156 22.5q-62 0 -140.5 -12t-156.5 -40v134q71 25 157 38.5t162 13.5q138 0 231.5 -36.5t142 -122.5t48.5 -235v-467 q0 -86 30.5 -123.5t94.5 -37.5q55 0 102.5 44t76.5 149t29 289q0 220 -46.5 377.5t-139 258t-231 147.5t-321.5 47q-181 0 -320 -48.5t-233 -153.5t-142 -272t-48 -403q0 -240 49 -409t147 -274.5t245 -154t343 -48.5q105 0 203.5 14t202.5 43v-122q-91 -26 -194 -41 t-212 -15q-298 0 -503 105t-311.5 326.5t-106.5 571.5z" />
<glyph unicode="A" horiz-adv-x="1381" d="M30 0l543 1516h235l544 -1516h-169l-508 1437h28l-507 -1437h-166zM314 490l39 141h674l39 -141h-752z" />
<glyph unicode="B" horiz-adv-x="1289" d="M173 11v1479q62 13 128.5 22.5t138 14.5t150.5 5q204 0 332.5 -44.5t188.5 -134t60 -226.5q0 -87 -31.5 -161t-100 -124t-179.5 -68l2 14q178 -20 265 -119.5t87 -256.5q0 -103 -36 -182.5t-115.5 -133.5t-207 -81.5t-308.5 -27.5q-60 0 -122.5 3t-124.5 8t-127 13z M313 711v134h320q137 0 220.5 30.5t121 92t37.5 153.5q0 148 -93 213.5t-315 65.5q-83 0 -146.5 -5.5t-120.5 -16.5v-1245q59 -8 118 -11t126 -3q179 0 283 32.5t148.5 98.5t44.5 167q0 151 -95 222.5t-299 71.5h-350z" />
<glyph unicode="C" horiz-adv-x="1178" d="M108 755q0 274 83.5 446t241 253t377.5 81q88 0 168.5 -11.5t159.5 -32.5v-145q-80 25 -159.5 35t-162.5 10q-172 0 -291 -61t-180.5 -200t-61.5 -371q0 -240 62.5 -378.5t179.5 -197t281 -58.5q84 0 163 13.5t169 42.5v-144q-76 -27 -162.5 -41.5t-181.5 -14.5 q-157 0 -283.5 41t-216.5 132.5t-138 240t-48 360.5z" />
<glyph unicode="D" horiz-adv-x="1433" d="M173 9v1482q61 12 128.5 21.5t135.5 14t132 4.5q375 0 566 -189.5t191 -583.5q0 -267 -89 -437t-266 -251.5t-440 -81.5q-57 0 -113.5 2.5t-116.5 7t-128 11.5zM339 142q53 -6 106.5 -9t118.5 -3q198 0 329 64t196 203t65 362q0 220 -64 359t-192.5 205.5t-323.5 66.5 q-55 0 -114.5 -5.5t-120.5 -15.5v-1227z" />
<glyph unicode="E" horiz-adv-x="1193" d="M173 0v1516h938v-141h-773v-1235h783v-140h-948zM278 708v140h733v-140h-733z" />
<glyph unicode="F" horiz-adv-x="1152" d="M173 0v1516h930v-143h-764v-1373h-166zM290 694v142h714v-142h-714z" />
<glyph unicode="G" horiz-adv-x="1379" d="M108 755q0 275 91 447t258 252.5t394 80.5q86 0 170.5 -11.5t168.5 -33.5v-144q-92 26 -172 35.5t-158 9.5q-180 0 -309.5 -61.5t-199 -201t-69.5 -373.5q0 -222 66.5 -360t198.5 -201.5t329 -63.5q74 0 137.5 6t119.5 17l-66 -69v653h158v-721q-96 -15 -176 -22t-163 -7 q-256 0 -429 80.5t-261 250t-88 437.5z" />
<glyph unicode="H" horiz-adv-x="1479" d="M173 0v1516h166v-663h801v663h167v-1516h-167v702h-801v-702h-166z" />
<glyph unicode="I" horiz-adv-x="513" d="M173 0v1516h166v-1516h-166z" />
<glyph unicode="J" horiz-adv-x="513" d="M-9 -278q65 89 105 174t59 181t19 221v1218h165v-1240q0 -125 -24 -227.5t-77 -199.5t-138 -201z" />
<glyph unicode="K" horiz-adv-x="1266" d="M173 0v1516h166v-1516h-166zM312 702v150h271v-150h-271zM506 774l559 742h182l-574 -760l2 47l615 -803h-187z" />
<glyph unicode="L" horiz-adv-x="1096" d="M173 0v1516h166v-1372h746v-144h-912z" />
<glyph unicode="M" horiz-adv-x="1802" d="M177 0v1516h198l548 -1177h-36l540 1177h198v-1516h-157v1371h48l-540 -1161h-150l-545 1161h53v-1371h-157z" />
<glyph unicode="N" horiz-adv-x="1504" d="M173 0v1516h171l871 -1326h-40v1326h156v-1516h-171l-870 1325h41v-1325h-158z" />
<glyph unicode="O" horiz-adv-x="1473" d="M108 758q0 273 78.5 444.5t220.5 252t330 80.5t329.5 -80.5t220.5 -252t79 -444.5t-79 -445t-221 -252t-329 -80q-189 0 -330.5 80t-220 251.5t-78.5 445.5zM280 763q0 -238 56.5 -377.5t159.5 -201t241 -61.5q137 0 240 61t160 199t57 370q0 237 -57 377t-160 201.5 t-240 61.5q-138 0 -241 -60.5t-159.5 -199t-56.5 -370.5z" />
<glyph unicode="P" horiz-adv-x="1262" d="M173 0v1493q94 18 189 28.5t200 10.5q300 0 454 -124.5t154 -392.5q0 -252 -153 -385t-478 -133q-53 0 -100 2.5t-100 6.5v-506h-166zM339 644q50 -7 99 -9.5t104 -2.5q245 0 354.5 93.5t109.5 286.5q0 202 -107 293.5t-326 91.5q-67 0 -123.5 -4.5t-110.5 -14.5v-734z " />
<glyph unicode="Q" horiz-adv-x="1473" d="M108 755q0 275 78.5 447t220.5 252.5t330 80.5q187 0 329 -79.5t221 -251t79 -446.5q0 -247 -68 -417t-202 -258.5t-333 -88.5q-30 0 -60.5 2t-62.5 6l34 46q97 -41 208.5 -69.5t228.5 -47t230 -28.5l-26 -139q-281 34 -485 89t-343.5 135.5t-222.5 190t-119.5 252 t-36.5 324.5zM280 763q0 -238 56.5 -378t159 -201t241.5 -61q137 0 240 61t160 199t57 370q0 237 -57 377t-160 201.5t-240 61.5q-138 0 -241 -60.5t-159.5 -199t-56.5 -370.5z" />
<glyph unicode="R" horiz-adv-x="1338" d="M173 0v1491q58 11 121 20.5t134 15t150 5.5q299 0 445 -109t146 -341q0 -152 -71 -253t-209 -152t-342 -51q-62 0 -110.5 2.5t-99.5 6.5v-635h-164zM337 769q40 -4 71.5 -6t64.5 -3t75 -1q244 0 353.5 78.5t109.5 242.5q0 114 -44 184t-138 102.5t-242 32.5 q-77 0 -134.5 -5.5t-115.5 -16.5v-608zM562 713h186l538 -713h-189z" />
<glyph unicode="S" horiz-adv-x="1088" d="M76 1115q0 196 135.5 308t403.5 112q88 0 174.5 -12t156.5 -34v-143q-78 25 -160.5 36.5t-165.5 11.5q-130 0 -213 -32t-123 -92.5t-40 -145.5q0 -112 62.5 -173t215.5 -102l83 -21q139 -36 229.5 -91.5t134.5 -136t44 -189.5q0 -137 -63.5 -233t-184.5 -146.5 t-292 -50.5q-90 0 -188 15t-186 46v143q63 -22 128.5 -35.5t128 -20.5t119.5 -7q188 0 278.5 71t90.5 207q0 116 -68 177t-232 104l-82 21q-194 49 -290 149t-96 264z" />
<glyph unicode="T" horiz-adv-x="1204" d="M14 1371v145h1176v-145h-505v-1371h-166v1371h-505z" />
<glyph unicode="U" horiz-adv-x="1451" d="M166 573v943h166v-961q0 -224 95.5 -327.5t299.5 -103.5q206 0 301 103.5t95 327.5v961h162v-943q0 -203 -59 -334t-182 -194.5t-317 -63.5t-317.5 63.5t-183.5 195t-60 333.5z" />
<glyph unicode="V" horiz-adv-x="1345" d="M11 1516h176l508 -1440h-37l511 1440h165l-540 -1516h-242z" />
<glyph unicode="W" horiz-adv-x="2166" d="M56 1516h171l396 -1436h-42l408 1436h196l403 -1436h-38l399 1436h160l-427 -1516h-217l-401 1410h43l-406 -1410h-218z" />
<glyph unicode="X" horiz-adv-x="1308" d="M11 0l544 772l99 128l435 616h186l-523 -742l-100 -128l-453 -646h-188zM31 1516h190l433 -616l98 -126l544 -774h-190l-454 646l-97 126z" />
<glyph unicode="Y" horiz-adv-x="1204" d="M-32 1516h184l482 -739h-56l476 739h172l-577 -899l37 124v-741h-167v743l37 -126z" />
<glyph unicode="Z" horiz-adv-x="1180" d="M63 0v93l849 1319l12 -39h-849v143h1031v-94l-850 -1319l-10 39h871v-142h-1054z" />
<glyph unicode="[" horiz-adv-x="674" d="M194 -451v2106h518v-136h-355v-1833h353v-137h-516z" />
<glyph unicode="\" horiz-adv-x="633" d="M0 1655h164l470 -1901h-164z" />
<glyph unicode="]" horiz-adv-x="674" d="M-37 1519v136h518v-2106h-516v137h352v1833h-354z" />
<glyph unicode="^" horiz-adv-x="1184" d="M98 758l406 758h175l407 -758h-167l-354 670h55l-354 -670h-168z" />
<glyph unicode="_" horiz-adv-x="1148" d="M94 0h961v-136h-961v136z" />
<glyph unicode="`" horiz-adv-x="1077" d="M293 1655h177l220 -372h-151z" />
<glyph unicode="a" d="M94 285q0 145 96 226.5t308 101.5l298 32l15 -108l-303 -33q-132 -13 -190 -64t-58 -140q0 -93 53.5 -142t158.5 -49q73 0 146.5 31t132.5 105v490q0 102 -32 158t-95.5 78.5t-159.5 22.5q-62 0 -141.5 -11t-158.5 -38v134q72 24 158.5 36.5t162.5 12.5q141 0 236 -36.5 t142.5 -124t47.5 -239.5v-728h-137l-12 124h-10q-54 -69 -139 -105.5t-183 -36.5q-157 0 -246.5 80.5t-89.5 222.5z" />
<glyph unicode="b" horiz-adv-x="1156" d="M155 31v1624h163v-659h10q51 58 129.5 95t178.5 37q116 0 212 -53.5t154 -175t58 -322.5q0 -301 -143 -448.5t-419 -147.5q-87 0 -176.5 12.5t-166.5 37.5zM318 139q37 -10 88 -17t104 -7q188 0 285.5 104.5t97.5 342.5q0 166 -40 258t-109 129.5t-156 37.5 q-76 0 -148 -31t-122 -98v-719z" />
<glyph unicode="c" horiz-adv-x="897" d="M96 555q0 202 62 328.5t181 185.5t291 59q58 0 116.5 -7t111.5 -21v-139q-54 14 -107 21t-104 7q-128 0 -213 -42t-126.5 -136t-41.5 -252q0 -162 39 -258t116.5 -138.5t189.5 -42.5q54 0 113.5 10.5t133.5 34.5v-138q-66 -24 -133.5 -35t-136.5 -11q-158 0 -267.5 59.5 t-167 186t-57.5 328.5z" />
<glyph unicode="d" horiz-adv-x="1156" d="M96 532q0 201 64 333t189 197.5t307 65.5q47 0 94.5 -4t87.5 -10v541h163v-1655h-139l-11 120h-11q-49 -60 -127.5 -99.5t-178.5 -39.5q-121 0 -220.5 54.5t-158.5 175.5t-59 321zM263 547q0 -164 39.5 -256.5t108.5 -130.5t159 -38q75 0 146.5 32.5t121.5 104.5v716 q-37 9 -86.5 14t-97.5 5q-194 0 -292.5 -104.5t-98.5 -342.5z" />
<glyph unicode="e" d="M96 556q0 196 55 323t156 188t239 61q136 0 231.5 -61.5t146 -189t50.5 -325.5v-50h-789v111h668l-36 -24q0 156 -32 248t-93 132.5t-148 40.5q-86 0 -149.5 -40t-98 -132.5t-34.5 -248.5v-58q0 -154 41.5 -245t125.5 -131.5t213 -40.5q63 0 131.5 11.5t145.5 33.5v-134 q-80 -23 -152 -33.5t-144 -10.5q-173 0 -290.5 58.5t-177 185t-59.5 331.5z" />
<glyph unicode="f" horiz-adv-x="734" d="M19 976v135h721v-135h-721zM228 0v1279q0 129 45.5 217.5t136 133.5t222.5 45q38 0 76 -3t75 -9v-137q-35 6 -68 8.5t-67 2.5q-130 0 -193.5 -57.5t-63.5 -193.5v-1286h-163z" />
<glyph unicode="g" horiz-adv-x="1156" d="M96 534q0 299 143 446.5t420 147.5q57 0 117.5 -6t117.5 -17t107 -27v-1044q0 -270 -126.5 -387.5t-379.5 -117.5q-77 0 -164.5 13t-163.5 37v137q87 -27 166.5 -39.5t151.5 -12.5q180 0 266.5 77.5t86.5 267.5v109h-10q-50 -58 -128 -95t-179 -37q-116 0 -212 53.5 t-154.5 174t-58.5 320.5zM263 549q0 -165 40 -257t109 -129t157 -37q75 0 147 31.5t122 97.5v717q-37 9 -87.5 15.5t-104.5 6.5q-186 0 -284.5 -104t-98.5 -341z" />
<glyph unicode="h" horiz-adv-x="1164" d="M155 0v1655h163v-668h10q68 71 155.5 106t187.5 35q101 0 180.5 -38t124.5 -124t45 -231v-735h-163v728q0 143 -64 198t-169 55q-51 0 -106.5 -15t-108 -47t-92.5 -85v-834h-163z" />
<glyph unicode="i" horiz-adv-x="474" d="M123 1455q0 49 29 77t84 28t84.5 -28t29.5 -77q0 -48 -29.5 -75t-84.5 -27t-84 27t-29 75zM155 0v1111h163v-1111h-163z" />
<glyph unicode="j" horiz-adv-x="474" d="M-28 -401q65 89 105.5 176t59 183.5t18.5 215.5v937h163v-928q0 -132 -24 -242t-76 -211.5t-137 -204.5zM122 1459q0 49 29 77t84 28t84.5 -28t29.5 -77q0 -48 -29.5 -75t-84.5 -27t-84 27t-29 75z" />
<glyph unicode="k" horiz-adv-x="1062" d="M155 0v1655h163v-1655h-163zM298 501v137h226v-137h-226zM454 569l415 542h183l-427 -562v45l460 -594h-185z" />
<glyph unicode="l" horiz-adv-x="473" d="M155 0v1655h163v-1655h-163z" />
<glyph unicode="m" horiz-adv-x="1735" d="M155 0v1111h138l11 -126h11q63 72 146 107.5t176 35.5q92 0 164.5 -37.5t114.5 -123t42 -229.5v-738h-161v728q0 143 -56.5 198.5t-148.5 55.5q-46 0 -96 -15.5t-96 -48.5t-82 -89v-829h-163zM890 939q81 105 179 147t189 42q96 0 172 -38t119.5 -124t43.5 -231v-735 h-163v728q0 143 -59 198.5t-151 55.5q-47 0 -100 -16t-102.5 -54.5t-86.5 -104.5z" />
<glyph unicode="n" horiz-adv-x="1164" d="M155 0v1111h138l11 -125h11q68 69 158 105.5t192 36.5q104 0 184.5 -38t126 -124.5t45.5 -231.5v-734h-163v727q0 143 -63 199t-170 56q-49 0 -104.5 -14.5t-108.5 -47t-94 -86.5v-834h-163z" />
<glyph unicode="o" horiz-adv-x="1138" d="M96 555q0 200 58 327t164.5 186.5t250.5 59.5t251 -59.5t164.5 -186t57.5 -327.5q0 -200 -58.5 -327t-165 -187t-249.5 -60t-249.5 59.5t-165 186t-58.5 328.5zM263 557q0 -167 37.5 -263.5t106 -138t162.5 -41.5t163 41t106.5 136.5t37.5 260.5q0 168 -37.5 264.5 t-106.5 137t-163 40.5t-162.5 -40.5t-106 -136t-37.5 -260.5z" />
<glyph unicode="p" horiz-adv-x="1156" d="M155 -451v1562h139l12 -122h10q50 61 128.5 100t178.5 39q120 0 219 -53t158.5 -174.5t59.5 -323.5q0 -201 -63.5 -333t-188.5 -197.5t-308 -65.5q-47 0 -94.5 4.5t-87.5 9.5v-446h-163zM318 134q37 -8 87 -13.5t97 -5.5q195 0 293 104.5t98 342.5q0 166 -40 258 t-109.5 129.5t-157.5 37.5q-75 0 -146.5 -32t-121.5 -105v-716z" />
<glyph unicode="q" horiz-adv-x="1156" d="M96 532q0 301 143 448.5t420 147.5q57 0 117.5 -6t117.5 -17t107 -27v-1529h-163v564h-10q-50 -58 -128 -95t-179 -37q-117 0 -213 53.5t-154 175t-58 322.5zM263 547q0 -166 40 -258t109 -129.5t157 -37.5q75 0 147 31.5t122 97.5v721q-37 9 -87.5 15.5t-104.5 6.5 q-186 0 -284.5 -104.5t-98.5 -342.5z" />
<glyph unicode="r" horiz-adv-x="740" d="M155 0v1111h137l13 -148h10q57 79 144 119t181 40q26 0 47 -2t41 -6v-151q-24 4 -47 5t-49 1q-54 0 -113 -17t-111.5 -52.5t-89.5 -88.5v-811h-163z" />
<glyph unicode="s" horiz-adv-x="922" d="M91 807q0 140 108 230.5t332 90.5q72 0 137 -8t126 -24v-132q-68 18 -130 26t-129 8q-105 0 -168.5 -25t-91 -67.5t-27.5 -94.5q0 -66 37 -109t129 -63l150 -31q154 -32 221 -104.5t67 -197.5q0 -151 -110 -238t-322 -87q-84 0 -160.5 11t-147.5 34v131 q82 -25 156.5 -35.5t151.5 -10.5q144 0 209 49t65 138q0 76 -39 116.5t-132 59.5l-150 31q-152 33 -217 108t-65 194z" />
<glyph unicode="t" horiz-adv-x="766" d="M11 976v135h722v-135h-722zM220 348v763l27 405h137v-1141q0 -140 58 -196.5t172 -56.5q31 0 64 4.5t72 12.5v-138q-41 -10 -84 -15t-87 -5q-170 0 -264.5 87.5t-94.5 279.5z" />
<glyph unicode="u" horiz-adv-x="1154" d="M142 374v737h164v-730q0 -142 63.5 -198t164.5 -56q50 0 104.5 15.5t106 48t91.5 84.5v836h163v-1111h-138l-11 122h-10q-70 -70 -158 -105t-184 -35q-103 0 -183.5 37.5t-126.5 123.5t-46 231z" />
<glyph unicode="v" horiz-adv-x="1083" d="M15 1111h175l366 -993h-20l366 993h165l-421 -1111h-210z" />
<glyph unicode="w" horiz-adv-x="1733" d="M61 1111h161l278 -969h-17l290 969h194l289 -969h-18l279 969h154l-323 -1111h-194l-295 980h19l-297 -980h-194z" />
<glyph unicode="x" horiz-adv-x="1033" d="M16 0l403 560l100 121l308 430h182l-395 -549l-99 -120l-315 -442h-184zM24 1111h187l308 -430l95 -119l406 -562h-187l-318 442l-96 118z" />
<glyph unicode="y" horiz-adv-x="1083" d="M15 1111h175l403 -1111h-157zM312 -451l171 451l53 118l366 993h165l-591 -1562h-164z" />
<glyph unicode="z" horiz-adv-x="941" d="M65 0v101l628 913v-38h-617v135h797v-101l-628 -913v39h641v-136h-821z" />
<glyph unicode="{" horiz-adv-x="715" d="M37 571v137h29q83 0 125.5 41t42.5 129v440q0 178 95 267.5t281 89.5q40 0 77.5 -3t65.5 -8v-128h-125q-115 0 -172.5 -50.5t-57.5 -166.5v-432q0 -117 -50 -180t-163 -78v21q113 -14 163 -77.5t50 -180.5v-507q0 -115 57.5 -166t172.5 -51h125v-128q-28 -4 -65.5 -7.5 t-77.5 -3.5q-186 0 -281 89.5t-95 267.5v515q0 89 -43 129.5t-125 40.5h-29z" />
<glyph unicode="|" horiz-adv-x="498" d="M173 -451v2106h152v-2106h-152z" />
<glyph unicode="}" horiz-adv-x="715" d="M-37 -332h125q116 0 172.5 51.5t56.5 165.5v507q0 117 51 180.5t162 77.5v-21q-112 15 -162.5 78t-50.5 180v432q0 116 -56.5 166.5t-172.5 50.5h-125v128q29 5 66 8t76 3q187 0 281.5 -89.5t94.5 -267.5v-440q0 -88 43 -129t126 -41h29v-137h-29q-83 0 -126 -40.5 t-43 -129.5v-515q0 -178 -94.5 -267.5t-281.5 -89.5q-40 0 -76.5 3.5t-65.5 7.5v128z" />
<glyph unicode="~" horiz-adv-x="1101" d="M153 656v148q78 95 213 95q57 0 107.5 -20.5t97.5 -43.5q44 -20 84.5 -38t81.5 -18q62 0 114 28t98 84v-148q-77 -95 -213 -95q-56 0 -107 21t-99 44q-44 20 -84 37.5t-81 17.5q-62 0 -113.5 -27.5t-98.5 -84.5z" />
<glyph unicode="&#xa1;" horiz-adv-x="513" d="M139 1012q0 52 32.5 82t85.5 30q52 0 85 -30.5t33 -81.5t-32.5 -83t-85.5 -32q-54 0 -86 31t-32 84zM170 169l35 555h104l34 -555v-558h-173v558z" />
<glyph unicode="&#xa2;" horiz-adv-x="902" d="M96 555q0 202 61.5 328.5t181 185.5t292.5 59q58 0 115 -7t112 -21v-139q-56 14 -109 21t-105 7q-128 0 -212 -42t-125 -136t-41 -252q0 -162 39 -258t116.5 -138.5t189.5 -42.5q54 0 113.5 10.5t133.5 34.5v-138q-66 -24 -133.5 -35t-136.5 -11q-158 0 -267.5 59.5 t-167 186t-57.5 328.5zM505 15h143v-261h-143v261zM505 1096v261h143v-261h-143z" />
<glyph unicode="&#xa3;" horiz-adv-x="1297" d="M79 0v139h1144v-139h-1144zM79 702v132h920v-132h-920zM305 57v1011q0 236 139 351.5t410 115.5q85 0 171 -12t156 -33v-143q-77 25 -159 36t-162 11q-133 0 -220 -32.5t-130 -102.5t-43 -187v-1015h-162z" />
<glyph unicode="&#xa4;" horiz-adv-x="1184" d="M103 1150l95 95l104 -107l122 -152l-62 -60l-150 121zM104 366l108 103l143 114l62 -64l-113 -141l-104 -108zM253 758q0 104 43 183t119.5 122.5t176.5 43.5t176.5 -43.5t120 -122.5t43.5 -183q0 -105 -43.5 -184.5t-120 -123t-176.5 -43.5t-176.5 43.5t-119.5 122.5 t-43 185zM364 758q0 -115 64 -180t164 -65q101 0 164.5 64t63.5 181q0 108 -59 176t-167 68q-102 0 -166 -64.5t-64 -179.5zM760 986l123 152l103 107l95 -95l-109 -103l-151 -121zM768 519l61 64l143 -114l107 -103l-94 -96l-104 108z" />
<glyph unicode="&#xa5;" horiz-adv-x="1243" d="M-9 1516h183l479 -739h-56l479 739h172l-579 -899l37 124v-741h-167v743l36 -126zM214 306v112h816v-112h-816zM214 655v112h816v-112h-816z" />
<glyph unicode="&#xa6;" horiz-adv-x="498" d="M173 348h152v-799h-152v799zM173 856v799h152v-799h-152z" />
<glyph unicode="&#xa7;" horiz-adv-x="1039" d="M122 804q0 77 36.5 139.5t102.5 104.5l95 -70q-47 -33 -70 -75t-23 -91q0 -70 39.5 -117t136.5 -68l165 -34q151 -33 217.5 -103t66.5 -186q0 -150 -110 -236.5t-327 -86.5q-78 0 -154 10t-147 32v127q82 -24 154.5 -34t146.5 -10q100 0 162.5 22.5t91 64t28.5 100.5 q0 77 -40 118t-132 60l-164 34q-143 32 -209 105.5t-66 193.5zM150 1211q0 93 47 166t145 114.5t251 41.5q69 0 133 -7.5t123 -22.5v-128q-68 18 -125.5 25t-121.5 7q-112 0 -177 -25t-93.5 -67.5t-28.5 -93.5q0 -68 37.5 -111t129.5 -63l167 -34q148 -32 214.5 -104.5 t66.5 -193.5q0 -82 -37 -144.5t-103 -104.5l-100 70q51 33 74.5 73t23.5 93q0 79 -42.5 123t-139.5 66l-164 34q-147 33 -213.5 104t-66.5 182z" />
<glyph unicode="&#xa8;" horiz-adv-x="1077" d="M288 1455q0 47 28 75t77 28q48 0 76.5 -28t28.5 -75q0 -46 -28.5 -73t-76.5 -27q-49 0 -77 27t-28 73zM731 1455q0 47 28 75t78 28q48 0 76 -28t28 -75q0 -46 -28 -73t-76 -27q-49 0 -77.5 27t-28.5 73z" />
<glyph unicode="&#xa9;" horiz-adv-x="1742" d="M108 758q0 234 95.5 409.5t267 273t400.5 97.5t401 -97.5t267 -273t95 -409.5t-95 -410t-267 -273.5t-401 -97.5t-400.5 97.5t-267 273t-95.5 410.5zM218 758q0 -204 80.5 -355t227 -234.5t345.5 -83.5t346 83.5t227.5 234.5t80.5 355t-80.5 355t-227.5 234.5t-346 83.5 t-345.5 -83.5t-227 -234.5t-80.5 -355zM506 751q0 202 113.5 311t319.5 109q53 0 100.5 -6t96.5 -20v-117q-47 13 -92.5 19.5t-96.5 6.5q-150 0 -228.5 -74t-78.5 -226q0 -155 77 -229.5t211 -74.5q44 0 94.5 8t113.5 29v-115q-49 -20 -104.5 -30t-116.5 -10 q-184 0 -296.5 106.5t-112.5 312.5z" />
<glyph unicode="&#xaa;" horiz-adv-x="888" d="M71 855q0 119 79.5 184.5t259.5 80.5l252 25l15 -92l-251 -25q-108 -10 -155.5 -48.5t-47.5 -107.5q0 -73 44 -111t132 -38q58 0 117 24t106 77v390q0 75 -26 117.5t-79 59.5t-135 17q-55 0 -120 -9.5t-131 -31.5v123q62 20 135 30.5t138 10.5q123 0 205.5 -31.5 t123.5 -103.5t41 -197v-574h-129l-11 99h-9q-46 -55 -117.5 -85t-153.5 -30q-133 0 -208 67t-75 179z" />
<glyph unicode="&#xab;" horiz-adv-x="1031" d="M115 577l260 435h170l-260 -435l260 -437h-170zM528 577l260 435h170l-260 -435l260 -437h-170z" />
<glyph unicode="&#xac;" horiz-adv-x="1364" d="M153 712v133h1070v-646h-140v513h-930z" />
<glyph unicode="&#xad;" horiz-adv-x="859" d="M153 507v138h554v-138h-554z" />
<glyph unicode="&#xae;" horiz-adv-x="1538" d="M144 903q0 186 79 328.5t220 222.5t326 80t326 -80t220 -222t79 -329q0 -186 -79 -328t-220 -221.5t-326 -79.5t-326 79.5t-220 221.5t-79 328zM241 903q0 -163 65.5 -283.5t184 -187t278.5 -66.5t279 66.5t184 187t65 283.5t-65 284.5t-184 188.5t-279 67t-278.5 -67 t-184 -188.5t-65.5 -284.5zM553 614v607h204q126 0 190.5 -50.5t64.5 -143.5t-63.5 -142t-191.5 -49h-109l-2 -222h-93zM648 918h124q146 0 147 109q0 112 -147 112h-124v-221zM775 844l89 26l174 -256h-105z" />
<glyph unicode="&#xaf;" horiz-adv-x="1077" d="M297 1402v109h635v-109h-635z" />
<glyph unicode="&#xb0;" horiz-adv-x="1002" d="M144 1178q0 103 46.5 183.5t126.5 126t185 45.5q103 0 183.5 -45.5t126.5 -126t46 -183.5q0 -102 -46 -183t-126.5 -126.5t-183.5 -45.5q-104 0 -184.5 45.5t-127 126t-46.5 183.5zM262 1179q0 -113 68 -179t172 -66t171 66t67 178q0 114 -67 178.5t-171 64.5t-172 -65 t-68 -177z" />
<glyph unicode="&#xb1;" horiz-adv-x="1101" d="M153 0v133h796v-133h-796zM153 684v133h328v339h140v-339h328v-133h-328v-339h-140v339h-328z" />
<glyph unicode="&#xb2;" horiz-adv-x="806" d="M79 1512v117q49 18 114 28.5t134 10.5q165 0 254.5 -66.5t89.5 -211.5q0 -82 -38 -161.5t-126 -190.5l-260 -327l-6 37h477v-117h-627v75l301 383q76 95 109 161t33 127q0 92 -55.5 134t-168.5 42q-63 0 -121.5 -10.5t-109.5 -30.5z" />
<glyph unicode="&#xb3;" horiz-adv-x="806" d="M73 656v111q62 -20 128.5 -30t126.5 -10q133 0 198 48.5t65 142.5q0 87 -60.5 135t-191.5 48h-138v110h85q134 0 201.5 48t67.5 136q0 81 -57 123t-169 42q-57 0 -117 -10t-116 -30v110q49 18 115.5 28t130.5 10q169 0 257 -68.5t88 -194.5q0 -98 -60 -163t-163 -87v14 q125 -15 191.5 -82.5t66.5 -177.5q0 -138 -97.5 -215t-291.5 -77q-68 0 -134.5 10t-125.5 29z" />
<glyph unicode="&#xb4;" horiz-adv-x="1077" d="M539 1283l220 372h177l-246 -372h-151z" />
<glyph unicode="&#xb5;" horiz-adv-x="1154" d="M142 -451v1562h164v-1562h-164zM216 374v168h90v-161q0 -142 63.5 -198t164.5 -56q50 0 104.5 15.5t106 48t91.5 84.5v836h163v-1111h-138l-11 122h-10q-65 -70 -147 -105t-170 -35q-94 0 -162.5 37.5t-106.5 123.5t-38 231z" />
<glyph unicode="&#xb6;" horiz-adv-x="1262" d="M91 1015q0 268 115.5 392.5t342.5 124.5q75 0 145.5 -4.5t132.5 -11.5v-1516h-129v505q-35 -4 -67.5 -6t-71.5 -2q-241 0 -354.5 133t-113.5 385zM961 0v1516h129v-1516h-129z" />
<glyph unicode="&#xb7;" horiz-adv-x="472" d="M119 572q0 52 31.5 83t86.5 31q53 0 85 -31t32 -83q0 -51 -32.5 -82t-84.5 -31q-53 0 -85.5 30.5t-32.5 82.5z" />
<glyph unicode="&#xb8;" horiz-adv-x="1077" d="M444 -307q44 -20 88.5 -29t81.5 -9q57 0 86 20.5t29 64.5q0 88 -117 88h-38v192h95v-160l-42 36q98 0 149 -42t51 -119q0 -74 -54 -117t-155 -43q-46 0 -92.5 9t-81.5 26v83z" />
<glyph unicode="&#xb9;" horiz-adv-x="806" d="M141 1328v130l286 201h88v-1005h-137v912l49 -37zM143 631v117h595v-117h-595z" />
<glyph unicode="&#xba;" horiz-adv-x="965" d="M77 1071q0 238 110.5 349t295.5 111t295.5 -111.5t110.5 -348.5q0 -158 -50.5 -260t-141.5 -152t-215 -50q-184 0 -294.5 113t-110.5 349zM231 1071q0 -127 31.5 -201t87.5 -106t132 -32q77 0 133.5 32t87 106t30.5 201q0 128 -30.5 201.5t-87 104.5t-133.5 31 q-76 0 -132 -31t-87.5 -104.5t-31.5 -201.5z" />
<glyph unicode="&#xbb;" horiz-adv-x="1031" d="M74 140l260 437l-260 435h170l260 -435l-260 -437h-170zM487 140l260 437l-260 435h170l260 -435l-260 -437h-170z" />
<glyph unicode="&#xbc;" horiz-adv-x="1896" d="M141 1328v130l286 201h88v-1005h-137v912l49 -37zM143 631v117h595v-117h-595zM471 -139l813 1794h141l-812 -1794h-142zM1121 98v77l368 710h133l-368 -711l-18 35h634v-111h-749zM1606 -139v348l25 330h99v-678h-124z" />
<glyph unicode="&#xbd;" horiz-adv-x="1896" d="M141 1328v130l286 201h88v-1005h-137v912l49 -37zM143 631v117h595v-117h-595zM471 -139l813 1794h141l-812 -1794h-142zM1169 742v117q49 18 114 28.5t134 10.5q165 0 254.5 -66.5t89.5 -211.5q-1 -82 -38.5 -161.5t-125.5 -190.5l-260 -327l-6 36h477v-116h-627v74 l301 383q76 95 109 161.5t33 127.5q0 92 -55.5 134t-168.5 42q-63 0 -121.5 -10.5t-109.5 -30.5z" />
<glyph unicode="&#xbe;" horiz-adv-x="1896" d="M73 656v111q62 -20 128.5 -30t126.5 -10q133 0 198 48.5t65 142.5q0 87 -60.5 135t-191.5 48h-138v110h85q134 0 201.5 48t67.5 136q0 81 -57 123t-169 42q-57 0 -117 -10t-116 -30v110q49 18 115.5 28t130.5 10q169 0 257 -68.5t88 -194.5q0 -98 -60 -163t-163 -87v14 q125 -15 191.5 -82.5t66.5 -177.5q0 -138 -97.5 -215t-291.5 -77q-68 0 -134.5 10t-125.5 29zM471 -139l813 1794h141l-812 -1794h-142zM1121 98v77l368 710h133l-368 -711l-18 35h634v-111h-749zM1606 -139v348l25 330h99v-678h-124z" />
<glyph unicode="&#xbf;" horiz-adv-x="925" d="M60 -32q0 105 38.5 186.5t122.5 143.5t221 115l16 329h104l29 -416q-140 -43 -220.5 -93t-114.5 -112.5t-34 -142.5q0 -121 83.5 -186t248.5 -65q85 0 168.5 14t162.5 43v-138q-47 -17 -104.5 -29.5t-119 -19.5t-121.5 -7q-233 0 -356.5 100.5t-123.5 277.5zM392 1015 q0 48 32.5 78.5t85.5 30.5q52 0 85 -30t33 -79q0 -50 -32.5 -80.5t-85.5 -30.5t-85.5 31t-32.5 80z" />
<glyph unicode="&#xc0;" horiz-adv-x="1381" d="M30 0l543 1516h235l544 -1516h-169l-508 1437h28l-507 -1437h-166zM314 490l39 141h674l39 -141h-752zM408 1937h177l181 -290h-149z" />
<glyph unicode="&#xc1;" horiz-adv-x="1381" d="M30 0l543 1516h235l544 -1516h-169l-508 1437h28l-507 -1437h-166zM314 490l39 141h674l39 -141h-752zM617 1647l181 290h177l-210 -290h-148z" />
<glyph unicode="&#xc2;" horiz-adv-x="1381" d="M30 0l543 1516h235l544 -1516h-169l-508 1437h28l-507 -1437h-166zM314 490l39 141h674l39 -141h-752zM365 1647l251 290h151l251 -290h-143l-201 238h35l-201 -238h-143z" />
<glyph unicode="&#xc3;" horiz-adv-x="1381" d="M30 0l543 1516h235l544 -1516h-169l-508 1437h28l-507 -1437h-166zM314 490l39 141h674l39 -141h-752zM356 1714v112q33 34 75.5 50.5t102.5 16.5q48 0 91 -13t82 -29q37 -14 72 -25t72 -11q55 0 96.5 17.5t79.5 54.5v-112q-32 -33 -75.5 -50t-102.5 -17 q-48 0 -90.5 13.5t-82.5 28.5q-37 14 -72 25t-72 11q-55 0 -96.5 -17.5t-79.5 -54.5z" />
<glyph unicode="&#xc4;" horiz-adv-x="1381" d="M30 0l543 1516h235l544 -1516h-169l-508 1437h28l-507 -1437h-166zM314 490l39 141h674l39 -141h-752zM347 1793q0 45 28 70.5t77 25.5q50 0 77.5 -25.5t27.5 -70.5q0 -43 -27.5 -68.5t-77.5 -25.5q-49 0 -77 25.5t-28 68.5zM826 1793q0 45 27.5 70.5t77.5 25.5 q49 0 76.5 -25.5t27.5 -70.5q0 -43 -27.5 -68.5t-76.5 -25.5q-50 0 -77.5 25.5t-27.5 68.5z" />
<glyph unicode="&#xc5;" horiz-adv-x="1381" d="M30 0l543 1516h235l544 -1516h-169l-508 1437h28l-507 -1437h-166zM314 490l39 141h674l39 -141h-752zM492 1837q0 86 56.5 142t142.5 56q87 0 143.5 -56t56.5 -142t-56.5 -142.5t-143.5 -56.5q-86 0 -142.5 56.5t-56.5 142.5zM572 1837q0 -56 33.5 -89t85.5 -33t86 33 t34 89q0 57 -33.5 89.5t-86.5 32.5q-52 0 -85.5 -32.5t-33.5 -89.5z" />
<glyph unicode="&#xc6;" horiz-adv-x="1891" d="M30 0l553 1516h356l-1 -141h-245l-496 -1375h-167zM318 490l40 141h624v-141h-664zM860 1516h948v-141h-777l86 -1235h702v-140h-856zM1007 708v140h701v-140h-701z" />
<glyph unicode="&#xc7;" horiz-adv-x="1178" d="M108 755q0 274 83.5 446t241 253t377.5 81q88 0 168.5 -11.5t159.5 -32.5v-145q-80 25 -159.5 35t-162.5 10q-172 0 -291 -61t-180.5 -200t-61.5 -371q0 -240 62.5 -378.5t179.5 -197t281 -58.5q84 0 163 13.5t169 42.5v-144q-76 -27 -162.5 -41.5t-181.5 -14.5 q-157 0 -283.5 41t-216.5 132.5t-138 240t-48 360.5zM534 -305q54 -23 100.5 -31.5t90.5 -8.5q63 0 98 20t35 66q0 45 -35 66t-100 21h-42v192h93v-160l-33 37q100 0 158.5 -40.5t58.5 -119.5t-59.5 -120.5t-167.5 -41.5q-51 0 -102 9t-95 28v83z" />
<glyph unicode="&#xc8;" horiz-adv-x="1193" d="M173 0v1516h938v-141h-773v-1235h783v-140h-948zM278 708v140h733v-140h-733zM381 1937h177l181 -290h-149z" />
<glyph unicode="&#xc9;" horiz-adv-x="1193" d="M173 0v1516h938v-141h-773v-1235h783v-140h-948zM278 708v140h733v-140h-733zM590 1647l181 290h177l-210 -290h-148z" />
<glyph unicode="&#xca;" horiz-adv-x="1193" d="M173 0v1516h938v-141h-773v-1235h783v-140h-948zM278 708v140h733v-140h-733zM338 1647l251 290h151l251 -290h-143l-201 238h35l-201 -238h-143z" />
<glyph unicode="&#xcb;" horiz-adv-x="1193" d="M173 0v1516h938v-141h-773v-1235h783v-140h-948zM278 708v140h733v-140h-733zM320 1793q0 45 28 70.5t77 25.5q50 0 77.5 -25.5t27.5 -70.5q0 -43 -27.5 -68.5t-77.5 -25.5q-49 0 -77 25.5t-28 68.5zM799 1793q0 45 27.5 70.5t77.5 25.5q49 0 76.5 -25.5t27.5 -70.5 q0 -43 -27.5 -68.5t-76.5 -25.5q-50 0 -77.5 25.5t-27.5 68.5z" />
<glyph unicode="&#xcc;" horiz-adv-x="513" d="M-27 1937h177l181 -290h-149zM173 0v1516h166v-1516h-166z" />
<glyph unicode="&#xcd;" horiz-adv-x="513" d="M173 0v1516h166v-1516h-166zM182 1647l181 290h177l-210 -290h-148z" />
<glyph unicode="&#xce;" horiz-adv-x="513" d="M-70 1647l251 290h151l251 -290h-143l-201 238h35l-201 -238h-143zM173 0v1516h166v-1516h-166z" />
<glyph unicode="&#xcf;" horiz-adv-x="513" d="M-88 1793q0 45 28 70.5t77 25.5q50 0 77.5 -25.5t27.5 -70.5q0 -43 -27.5 -68.5t-77.5 -25.5q-49 0 -77 25.5t-28 68.5zM173 0v1516h166v-1516h-166zM391 1793q0 45 27.5 70.5t77.5 25.5q49 0 76.5 -25.5t27.5 -70.5q0 -43 -27.5 -68.5t-76.5 -25.5q-50 0 -77.5 25.5 t-27.5 68.5z" />
<glyph unicode="&#xd0;" horiz-adv-x="1433" d="M3 722v117h675v-117h-675zM173 9v1482q61 12 128.5 21.5t135.5 14t132 4.5q375 0 566 -189.5t191 -583.5q0 -267 -89 -437t-266 -251.5t-440 -81.5q-57 0 -113.5 2.5t-116.5 7t-128 11.5zM339 142q53 -6 106.5 -9t118.5 -3q198 0 329 64t196 203t65 362q0 220 -64 359 t-192.5 205.5t-323.5 66.5q-55 0 -114.5 -5.5t-120.5 -15.5v-1227z" />
<glyph unicode="&#xd1;" horiz-adv-x="1504" d="M173 0v1516h171l871 -1326h-40v1326h156v-1516h-171l-870 1325h41v-1325h-158zM417 1714v112q33 34 75.5 50.5t102.5 16.5q48 0 91 -13t82 -29q37 -14 72 -25t72 -11q55 0 96.5 17.5t79.5 54.5v-112q-32 -33 -75.5 -50t-102.5 -17q-48 0 -90.5 13.5t-82.5 28.5 q-37 14 -72 25t-72 11q-55 0 -96.5 -17.5t-79.5 -54.5z" />
<glyph unicode="&#xd2;" horiz-adv-x="1473" d="M108 758q0 273 78.5 444.5t220.5 252t330 80.5t329.5 -80.5t220.5 -252t79 -444.5t-79 -445t-221 -252t-329 -80q-189 0 -330.5 80t-220 251.5t-78.5 445.5zM280 763q0 -238 56.5 -377.5t159.5 -201t241 -61.5q137 0 240 61t160 199t57 370q0 237 -57 377t-160 201.5 t-240 61.5q-138 0 -241 -60.5t-159.5 -199t-56.5 -370.5zM454 1937h177l181 -290h-149z" />
<glyph unicode="&#xd3;" horiz-adv-x="1473" d="M108 758q0 273 78.5 444.5t220.5 252t330 80.5t329.5 -80.5t220.5 -252t79 -444.5t-79 -445t-221 -252t-329 -80q-189 0 -330.5 80t-220 251.5t-78.5 445.5zM280 763q0 -238 56.5 -377.5t159.5 -201t241 -61.5q137 0 240 61t160 199t57 370q0 237 -57 377t-160 201.5 t-240 61.5q-138 0 -241 -60.5t-159.5 -199t-56.5 -370.5zM663 1647l181 290h177l-210 -290h-148z" />
<glyph unicode="&#xd4;" horiz-adv-x="1473" d="M108 758q0 273 78.5 444.5t220.5 252t330 80.5t329.5 -80.5t220.5 -252t79 -444.5t-79 -445t-221 -252t-329 -80q-189 0 -330.5 80t-220 251.5t-78.5 445.5zM280 763q0 -238 56.5 -377.5t159.5 -201t241 -61.5q137 0 240 61t160 199t57 370q0 237 -57 377t-160 201.5 t-240 61.5q-138 0 -241 -60.5t-159.5 -199t-56.5 -370.5zM411 1647l251 290h151l251 -290h-143l-201 238h35l-201 -238h-143z" />
<glyph unicode="&#xd5;" horiz-adv-x="1473" d="M108 758q0 273 78.5 444.5t220.5 252t330 80.5t329.5 -80.5t220.5 -252t79 -444.5t-79 -445t-221 -252t-329 -80q-189 0 -330.5 80t-220 251.5t-78.5 445.5zM280 763q0 -238 56.5 -377.5t159.5 -201t241 -61.5q137 0 240 61t160 199t57 370q0 237 -57 377t-160 201.5 t-240 61.5q-138 0 -241 -60.5t-159.5 -199t-56.5 -370.5zM402 1714v112q33 34 75.5 50.5t102.5 16.5q48 0 91 -13t82 -29q37 -14 72 -25t72 -11q55 0 96.5 17.5t79.5 54.5v-112q-32 -33 -75.5 -50t-102.5 -17q-48 0 -90.5 13.5t-82.5 28.5q-37 14 -72 25t-72 11 q-55 0 -96.5 -17.5t-79.5 -54.5z" />
<glyph unicode="&#xd6;" horiz-adv-x="1473" d="M108 758q0 273 78.5 444.5t220.5 252t330 80.5t329.5 -80.5t220.5 -252t79 -444.5t-79 -445t-221 -252t-329 -80q-189 0 -330.5 80t-220 251.5t-78.5 445.5zM280 763q0 -238 56.5 -377.5t159.5 -201t241 -61.5q137 0 240 61t160 199t57 370q0 237 -57 377t-160 201.5 t-240 61.5q-138 0 -241 -60.5t-159.5 -199t-56.5 -370.5zM393 1793q0 45 28 70.5t77 25.5q50 0 77.5 -25.5t27.5 -70.5q0 -43 -27.5 -68.5t-77.5 -25.5q-49 0 -77 25.5t-28 68.5zM872 1793q0 45 27.5 70.5t77.5 25.5q49 0 76.5 -25.5t27.5 -70.5q0 -43 -27.5 -68.5 t-76.5 -25.5q-50 0 -77.5 25.5t-27.5 68.5z" />
<glyph unicode="&#xd7;" horiz-adv-x="1024" d="M121 480l298 298l-298 298l93 93l298 -298l298 298l93 -93l-298 -298l298 -298l-93 -93l-298 298l-298 -298z" />
<glyph unicode="&#xd8;" horiz-adv-x="1473" d="M106 -1l1125 1517h133l-1125 -1517h-133zM108 758q0 273 78.5 444.5t220.5 252t330 80.5t329.5 -80.5t220.5 -252t79 -444.5t-79 -445t-221 -252t-329 -80q-189 0 -330.5 80t-220 251.5t-78.5 445.5zM280 763q0 -238 56.5 -377.5t159.5 -201t241 -61.5q137 0 240 61 t160 199t57 370q0 237 -57 377t-160 201.5t-240 61.5q-138 0 -241 -60.5t-159.5 -199t-56.5 -370.5z" />
<glyph unicode="&#xd9;" horiz-adv-x="1451" d="M166 573v943h166v-961q0 -224 95.5 -327.5t299.5 -103.5q206 0 301 103.5t95 327.5v961h162v-943q0 -203 -59 -334t-182 -194.5t-317 -63.5t-317.5 63.5t-183.5 195t-60 333.5zM444 1937h177l181 -290h-149z" />
<glyph unicode="&#xda;" horiz-adv-x="1451" d="M166 573v943h166v-961q0 -224 95.5 -327.5t299.5 -103.5q206 0 301 103.5t95 327.5v961h162v-943q0 -203 -59 -334t-182 -194.5t-317 -63.5t-317.5 63.5t-183.5 195t-60 333.5zM653 1647l181 290h177l-210 -290h-148z" />
<glyph unicode="&#xdb;" horiz-adv-x="1451" d="M166 573v943h166v-961q0 -224 95.5 -327.5t299.5 -103.5q206 0 301 103.5t95 327.5v961h162v-943q0 -203 -59 -334t-182 -194.5t-317 -63.5t-317.5 63.5t-183.5 195t-60 333.5zM401 1647l251 290h151l251 -290h-143l-201 238h35l-201 -238h-143z" />
<glyph unicode="&#xdc;" horiz-adv-x="1451" d="M166 573v943h166v-961q0 -224 95.5 -327.5t299.5 -103.5q206 0 301 103.5t95 327.5v961h162v-943q0 -203 -59 -334t-182 -194.5t-317 -63.5t-317.5 63.5t-183.5 195t-60 333.5zM383 1793q0 45 28 70.5t77 25.5q50 0 77.5 -25.5t27.5 -70.5q0 -43 -27.5 -68.5t-77.5 -25.5 q-49 0 -77 25.5t-28 68.5zM862 1793q0 45 27.5 70.5t77.5 25.5q49 0 76.5 -25.5t27.5 -70.5q0 -43 -27.5 -68.5t-76.5 -25.5q-50 0 -77.5 25.5t-27.5 68.5z" />
<glyph unicode="&#xdd;" horiz-adv-x="1204" d="M-32 1516h184l482 -739h-56l476 739h172l-577 -899l37 124v-741h-167v743l37 -126zM528 1647l181 290h177l-210 -290h-148z" />
<glyph unicode="&#xde;" horiz-adv-x="1272" d="M173 0v1517h166v-239q45 7 102 12t125 5q297 0 450.5 -124t153.5 -392q0 -253 -153 -385.5t-477 -132.5q-53 0 -100.5 2.5t-100.5 6.5v-270h-166zM339 408q50 -6 99 -9.5t104 -3.5q245 0 354.5 94t109.5 287q0 202 -107 293.5t-326 91.5q-67 0 -123.5 -4.5t-110.5 -13.5 v-735z" />
<glyph unicode="&#xdf;" horiz-adv-x="1424" d="M19 973v138h287v-138h-287zM228 0v1138q0 179 62.5 298t179 179t280.5 60q136 0 243 -48.5t168.5 -153.5t61.5 -272q0 -55 -8.5 -114t-19.5 -102q-31 6 -66.5 9.5t-86.5 3.5q-110 0 -173.5 -25t-91 -67.5t-27.5 -94.5q0 -66 37 -109t128 -63l151 -31q155 -33 221.5 -105 t66.5 -197q0 -151 -111.5 -238t-327.5 -87q-79 0 -154.5 10t-147.5 31v132q53 -15 104 -24.5t100 -14t97 -4.5q150 0 216 49t66 138q0 76 -39 116.5t-132 59.5l-151 31q-153 33 -217.5 108t-64.5 192q0 141 107.5 229.5t325.5 88.5q20 0 45 -1t49.5 -3t46.5 -5l-91 -66 q9 38 15 79t6 81q0 126 -44 201t-120.5 107.5t-172.5 32.5q-118 0 -200 -41.5t-124.5 -133t-42.5 -239.5v-1135h-164z" />
<glyph unicode="&#xe0;" d="M94 285q0 145 96 226.5t308 101.5l298 32l15 -108l-303 -33q-132 -13 -190 -64t-58 -140q0 -93 53.5 -142t158.5 -49q73 0 146.5 31t132.5 105v490q0 102 -32 158t-95.5 78.5t-159.5 22.5q-62 0 -141.5 -11t-158.5 -38v134q72 24 158.5 36.5t162.5 12.5q141 0 236 -36.5 t142.5 -124t47.5 -239.5v-728h-137l-12 124h-10q-54 -69 -139 -105.5t-183 -36.5q-157 0 -246.5 80.5t-89.5 222.5zM202 1655h177l220 -372h-151z" />
<glyph unicode="&#xe1;" d="M94 285q0 145 96 226.5t308 101.5l298 32l15 -108l-303 -33q-132 -13 -190 -64t-58 -140q0 -93 53.5 -142t158.5 -49q73 0 146.5 31t132.5 105v490q0 102 -32 158t-95.5 78.5t-159.5 22.5q-62 0 -141.5 -11t-158.5 -38v134q72 24 158.5 36.5t162.5 12.5q141 0 236 -36.5 t142.5 -124t47.5 -239.5v-728h-137l-12 124h-10q-54 -69 -139 -105.5t-183 -36.5q-157 0 -246.5 80.5t-89.5 222.5zM448 1283l220 372h177l-246 -372h-151z" />
<glyph unicode="&#xe2;" d="M94 285q0 145 96 226.5t308 101.5l298 32l15 -108l-303 -33q-132 -13 -190 -64t-58 -140q0 -93 53.5 -142t158.5 -49q73 0 146.5 31t132.5 105v490q0 102 -32 158t-95.5 78.5t-159.5 22.5q-62 0 -141.5 -11t-158.5 -38v134q72 24 158.5 36.5t162.5 12.5q141 0 236 -36.5 t142.5 -124t47.5 -239.5v-728h-137l-12 124h-10q-54 -69 -139 -105.5t-183 -36.5q-157 0 -246.5 80.5t-89.5 222.5zM221 1283l229 372h147l228 -372h-131l-188 315h35l-189 -315h-131z" />
<glyph unicode="&#xe3;" d="M94 285q0 145 96 226.5t308 101.5l298 32l15 -108l-303 -33q-132 -13 -190 -64t-58 -140q0 -93 53.5 -142t158.5 -49q73 0 146.5 31t132.5 105v490q0 102 -32 158t-95.5 78.5t-159.5 22.5q-62 0 -141.5 -11t-158.5 -38v134q72 24 158.5 36.5t162.5 12.5q141 0 236 -36.5 t142.5 -124t47.5 -239.5v-728h-137l-12 124h-10q-54 -69 -139 -105.5t-183 -36.5q-157 0 -246.5 80.5t-89.5 222.5zM206 1383v119q65 69 171 69q45 0 85 -15t77 -30q35 -15 67.5 -27t65.5 -12q50 0 90.5 19t78.5 59v-119q-65 -69 -171 -69q-45 0 -85 15t-77 30 q-35 15 -67 27t-66 12q-49 0 -89.5 -19t-79.5 -59z" />
<glyph unicode="&#xe4;" d="M94 285q0 145 96 226.5t308 101.5l298 32l15 -108l-303 -33q-132 -13 -190 -64t-58 -140q0 -93 53.5 -142t158.5 -49q73 0 146.5 31t132.5 105v490q0 102 -32 158t-95.5 78.5t-159.5 22.5q-62 0 -141.5 -11t-158.5 -38v134q72 24 158.5 36.5t162.5 12.5q141 0 236 -36.5 t142.5 -124t47.5 -239.5v-728h-137l-12 124h-10q-54 -69 -139 -105.5t-183 -36.5q-157 0 -246.5 80.5t-89.5 222.5zM197 1455q0 47 28 75t77 28q48 0 76.5 -28t28.5 -75q0 -46 -28.5 -73t-76.5 -27q-49 0 -77 27t-28 73zM640 1455q0 47 28 75t78 28q48 0 76 -28t28 -75 q0 -46 -28 -73t-76 -27q-49 0 -77.5 27t-28.5 73z" />
<glyph unicode="&#xe5;" d="M94 285q0 145 96 226.5t308 101.5l298 32l15 -108l-303 -33q-132 -13 -190 -64t-58 -140q0 -93 53.5 -142t158.5 -49q73 0 146.5 31t132.5 105v490q0 102 -32 158t-95.5 78.5t-159.5 22.5q-62 0 -141.5 -11t-158.5 -38v134q72 24 158.5 36.5t162.5 12.5q141 0 236 -36.5 t142.5 -124t47.5 -239.5v-728h-137l-12 124h-10q-54 -69 -139 -105.5t-183 -36.5q-157 0 -246.5 80.5t-89.5 222.5zM324 1476q0 86 56.5 142t142.5 56q87 0 143.5 -56t56.5 -142q0 -85 -56.5 -141.5t-143.5 -56.5q-86 0 -142.5 56.5t-56.5 141.5zM404 1476q0 -55 33.5 -88.5 t85.5 -33.5t86 33t34 89q0 57 -33.5 89.5t-86.5 32.5q-52 0 -85.5 -32.5t-33.5 -89.5z" />
<glyph unicode="&#xe6;" horiz-adv-x="1695" d="M94 285q0 96 43 170t137.5 116t247.5 42h272v-109h-264q-100 0 -159.5 -26.5t-85 -73.5t-25.5 -106q0 -92 55 -140.5t159 -48.5q85 0 170.5 41t153.5 151l59 -96q-93 -129 -199 -176t-216 -47q-109 0 -187 36t-119.5 103.5t-41.5 163.5zM165 945v134q73 25 156 37t159 12 q136 0 227 -37.5t137 -124t46 -233.5v-191l-138 15v180q0 100 -32.5 156.5t-96.5 78.5t-159 22q-62 0 -141.5 -11t-157.5 -38zM752 557l22 15q0 188 51 312t145.5 184t224.5 60q131 0 225 -60.5t145 -187.5t51 -326v-52h-743v111h622l-37 -28q0 159 -32 252t-92 133t-146 40 q-85 0 -147 -40t-96 -132.5t-34 -248.5v-58q0 -154 41 -245t124.5 -131.5t209.5 -40.5q62 0 130.5 11.5t144.5 33.5v-134q-79 -23 -151 -33.5t-142 -10.5q-170 0 -285 58.5t-173 185.5t-58 332z" />
<glyph unicode="&#xe7;" horiz-adv-x="897" d="M96 555q0 202 62 328.5t181 185.5t291 59q58 0 116.5 -7t111.5 -21v-139q-54 14 -107 21t-104 7q-128 0 -213 -42t-126.5 -136t-41.5 -252q0 -162 39 -258t116.5 -138.5t189.5 -42.5q54 0 113.5 10.5t133.5 34.5v-138q-66 -24 -133.5 -35t-136.5 -11q-158 0 -267.5 59.5 t-167 186t-57.5 328.5zM360 -307q44 -20 88.5 -29t81.5 -9q57 0 86 20.5t29 64.5q0 88 -117 88h-38v192h95v-160l-42 36q98 0 149 -42t51 -119q0 -74 -54 -117t-155 -43q-46 0 -92.5 9t-81.5 26v83z" />
<glyph unicode="&#xe8;" d="M96 556q0 196 55 323t156 188t239 61q136 0 231.5 -61.5t146 -189t50.5 -325.5v-50h-789v111h668l-36 -24q0 156 -32 248t-93 132.5t-148 40.5q-86 0 -149.5 -40t-98 -132.5t-34.5 -248.5v-58q0 -154 41.5 -245t125.5 -131.5t213 -40.5q63 0 131.5 11.5t145.5 33.5v-134 q-80 -23 -152 -33.5t-144 -10.5q-173 0 -290.5 58.5t-177 185t-59.5 331.5zM222 1655h177l220 -372h-151z" />
<glyph unicode="&#xe9;" d="M96 556q0 196 55 323t156 188t239 61q136 0 231.5 -61.5t146 -189t50.5 -325.5v-50h-789v111h668l-36 -24q0 156 -32 248t-93 132.5t-148 40.5q-86 0 -149.5 -40t-98 -132.5t-34.5 -248.5v-58q0 -154 41.5 -245t125.5 -131.5t213 -40.5q63 0 131.5 11.5t145.5 33.5v-134 q-80 -23 -152 -33.5t-144 -10.5q-173 0 -290.5 58.5t-177 185t-59.5 331.5zM468 1283l220 372h177l-246 -372h-151z" />
<glyph unicode="&#xea;" d="M96 556q0 196 55 323t156 188t239 61q136 0 231.5 -61.5t146 -189t50.5 -325.5v-50h-789v111h668l-36 -24q0 156 -32 248t-93 132.5t-148 40.5q-86 0 -149.5 -40t-98 -132.5t-34.5 -248.5v-58q0 -154 41.5 -245t125.5 -131.5t213 -40.5q63 0 131.5 11.5t145.5 33.5v-134 q-80 -23 -152 -33.5t-144 -10.5q-173 0 -290.5 58.5t-177 185t-59.5 331.5zM241 1283l229 372h147l228 -372h-131l-188 315h35l-189 -315h-131z" />
<glyph unicode="&#xeb;" d="M96 556q0 196 55 323t156 188t239 61q136 0 231.5 -61.5t146 -189t50.5 -325.5v-50h-789v111h668l-36 -24q0 156 -32 248t-93 132.5t-148 40.5q-86 0 -149.5 -40t-98 -132.5t-34.5 -248.5v-58q0 -154 41.5 -245t125.5 -131.5t213 -40.5q63 0 131.5 11.5t145.5 33.5v-134 q-80 -23 -152 -33.5t-144 -10.5q-173 0 -290.5 58.5t-177 185t-59.5 331.5zM217 1455q0 47 28 75t77 28q48 0 76.5 -28t28.5 -75q0 -46 -28.5 -73t-76.5 -27q-49 0 -77 27t-28 73zM660 1455q0 47 28 75t78 28q48 0 76 -28t28 -75q0 -46 -28 -73t-76 -27q-49 0 -77.5 27 t-28.5 73z" />
<glyph unicode="&#xec;" horiz-adv-x="474" d="M-85 1655h177l220 -372h-151zM155 0v1111h163v-1111h-163z" />
<glyph unicode="&#xed;" horiz-adv-x="474" d="M155 0v1111h163v-1111h-163zM161 1283l220 372h177l-246 -372h-151z" />
<glyph unicode="&#xee;" horiz-adv-x="474" d="M-66 1283l229 372h147l228 -372h-131l-188 315h35l-189 -315h-131zM155 0v1111h163v-1111h-163z" />
<glyph unicode="&#xef;" horiz-adv-x="474" d="M-90 1455q0 47 28 75t77 28q48 0 76.5 -28t28.5 -75q0 -46 -28.5 -73t-76.5 -27q-49 0 -77 27t-28 73zM155 0v1111h163v-1111h-163zM353 1455q0 47 28 75t78 28q48 0 76 -28t28 -75q0 -46 -28 -73t-76 -27q-49 0 -77.5 27t-28.5 73z" />
<glyph unicode="&#xf0;" horiz-adv-x="1138" d="M96 555q0 200 58 326.5t162 185t242 58.5q99 0 186 -41.5t147 -150.5l-68 25q-37 125 -104.5 246.5t-167.5 235t-237 215.5h203q111 -81 206 -199t167 -258.5t111.5 -293.5t39.5 -307q0 -215 -57.5 -351t-164 -201t-249.5 -65q-144 0 -250.5 59.5t-165 186.5t-58.5 329z M190 1357l807 136l19 -103l-807 -137zM263 557q0 -167 37.5 -264t106 -138t163.5 -41q93 0 162 43.5t106.5 139.5t37.5 255q0 167 -37.5 263.5t-106 137.5t-163.5 41q-94 0 -162.5 -40.5t-106 -136.5t-37.5 -260z" />
<glyph unicode="&#xf1;" horiz-adv-x="1164" d="M155 0v1111h138l11 -125h11q68 69 158 105.5t192 36.5q104 0 184.5 -38t126 -124.5t45.5 -231.5v-734h-163v727q0 143 -63 199t-170 56q-49 0 -104.5 -14.5t-108.5 -47t-94 -86.5v-834h-163zM271 1383v119q65 69 171 69q45 0 85 -15t77 -30q35 -15 67.5 -27t65.5 -12 q50 0 90.5 19t78.5 59v-119q-65 -69 -171 -69q-45 0 -85 15t-77 30q-35 15 -67 27t-66 12q-49 0 -89.5 -19t-79.5 -59z" />
<glyph unicode="&#xf2;" horiz-adv-x="1138" d="M96 555q0 200 58 327t164.5 186.5t250.5 59.5t251 -59.5t164.5 -186t57.5 -327.5q0 -200 -58.5 -327t-165 -187t-249.5 -60t-249.5 59.5t-165 186t-58.5 328.5zM248 1655h177l220 -372h-151zM263 557q0 -167 37.5 -263.5t106 -138t162.5 -41.5t163 41t106.5 136.5 t37.5 260.5q0 168 -37.5 264.5t-106.5 137t-163 40.5t-162.5 -40.5t-106 -136t-37.5 -260.5z" />
<glyph unicode="&#xf3;" horiz-adv-x="1138" d="M96 555q0 200 58 327t164.5 186.5t250.5 59.5t251 -59.5t164.5 -186t57.5 -327.5q0 -200 -58.5 -327t-165 -187t-249.5 -60t-249.5 59.5t-165 186t-58.5 328.5zM263 557q0 -167 37.5 -263.5t106 -138t162.5 -41.5t163 41t106.5 136.5t37.5 260.5q0 168 -37.5 264.5 t-106.5 137t-163 40.5t-162.5 -40.5t-106 -136t-37.5 -260.5zM494 1283l220 372h177l-246 -372h-151z" />
<glyph unicode="&#xf4;" horiz-adv-x="1138" d="M96 555q0 200 58 327t164.5 186.5t250.5 59.5t251 -59.5t164.5 -186t57.5 -327.5q0 -200 -58.5 -327t-165 -187t-249.5 -60t-249.5 59.5t-165 186t-58.5 328.5zM263 557q0 -167 37.5 -263.5t106 -138t162.5 -41.5t163 41t106.5 136.5t37.5 260.5q0 168 -37.5 264.5 t-106.5 137t-163 40.5t-162.5 -40.5t-106 -136t-37.5 -260.5zM267 1283l229 372h147l228 -372h-131l-188 315h35l-189 -315h-131z" />
<glyph unicode="&#xf5;" horiz-adv-x="1138" d="M96 555q0 200 58 327t164.5 186.5t250.5 59.5t251 -59.5t164.5 -186t57.5 -327.5q0 -200 -58.5 -327t-165 -187t-249.5 -60t-249.5 59.5t-165 186t-58.5 328.5zM252 1383v119q65 69 171 69q45 0 85 -15t77 -30q35 -15 67.5 -27t65.5 -12q50 0 90.5 19t78.5 59v-119 q-65 -69 -171 -69q-45 0 -85 15t-77 30q-35 15 -67 27t-66 12q-49 0 -89.5 -19t-79.5 -59zM263 557q0 -167 37.5 -263.5t106 -138t162.5 -41.5t163 41t106.5 136.5t37.5 260.5q0 168 -37.5 264.5t-106.5 137t-163 40.5t-162.5 -40.5t-106 -136t-37.5 -260.5z" />
<glyph unicode="&#xf6;" horiz-adv-x="1138" d="M96 555q0 200 58 327t164.5 186.5t250.5 59.5t251 -59.5t164.5 -186t57.5 -327.5q0 -200 -58.5 -327t-165 -187t-249.5 -60t-249.5 59.5t-165 186t-58.5 328.5zM243 1455q0 47 28 75t77 28q48 0 76.5 -28t28.5 -75q0 -46 -28.5 -73t-76.5 -27q-49 0 -77 27t-28 73z M263 557q0 -167 37.5 -263.5t106 -138t162.5 -41.5t163 41t106.5 136.5t37.5 260.5q0 168 -37.5 264.5t-106.5 137t-163 40.5t-162.5 -40.5t-106 -136t-37.5 -260.5zM686 1455q0 47 28 75t78 28q48 0 76 -28t28 -75q0 -46 -28 -73t-76 -27q-49 0 -77.5 27t-28.5 73z" />
<glyph unicode="&#xf7;" horiz-adv-x="1101" d="M153 712v133h796v-133h-796zM440 413q0 49 30.5 78t80.5 29t80.5 -29.5t30.5 -77.5t-31 -77.5t-80 -29.5t-80 29t-31 78zM440 1143q0 49 30.5 78t80.5 29t80.5 -29t30.5 -78q0 -48 -31 -77.5t-80 -29.5t-80 29t-31 78z" />
<glyph unicode="&#xf8;" horiz-adv-x="1138" d="M96 555q0 200 58 327t164.5 186.5t250.5 59.5q83 0 155 -21.5t127 -67.5l55 78h125l-103 -145q55 -70 84.5 -173.5t29.5 -243.5q0 -200 -58.5 -327t-164.5 -187t-250 -60q-84 0 -155.5 22t-127.5 68l-55 -77h-126l105 145q-54 71 -84 174t-30 242zM260 557 q0 -92 14 -161.5t39 -117.5l458 642q-38 41 -89.5 58.5t-112.5 17.5q-95 0 -164.5 -40.5t-107 -136.5t-37.5 -262zM366 190q39 -42 90 -59.5t113 -17.5q95 0 164.5 41t107.5 137t38 261q0 95 -14 165t-41 119z" />
<glyph unicode="&#xf9;" horiz-adv-x="1154" d="M142 374v737h164v-730q0 -142 63.5 -198t164.5 -56q50 0 104.5 15.5t106 48t91.5 84.5v836h163v-1111h-138l-11 122h-10q-70 -70 -158 -105t-184 -35q-103 0 -183.5 37.5t-126.5 123.5t-46 231zM250 1655h177l220 -372h-151z" />
<glyph unicode="&#xfa;" horiz-adv-x="1154" d="M142 374v737h164v-730q0 -142 63.5 -198t164.5 -56q50 0 104.5 15.5t106 48t91.5 84.5v836h163v-1111h-138l-11 122h-10q-70 -70 -158 -105t-184 -35q-103 0 -183.5 37.5t-126.5 123.5t-46 231zM496 1283l220 372h177l-246 -372h-151z" />
<glyph unicode="&#xfb;" horiz-adv-x="1154" d="M142 374v737h164v-730q0 -142 63.5 -198t164.5 -56q50 0 104.5 15.5t106 48t91.5 84.5v836h163v-1111h-138l-11 122h-10q-70 -70 -158 -105t-184 -35q-103 0 -183.5 37.5t-126.5 123.5t-46 231zM269 1283l229 372h147l228 -372h-131l-188 315h35l-189 -315h-131z" />
<glyph unicode="&#xfc;" horiz-adv-x="1154" d="M142 374v737h164v-730q0 -142 63.5 -198t164.5 -56q50 0 104.5 15.5t106 48t91.5 84.5v836h163v-1111h-138l-11 122h-10q-70 -70 -158 -105t-184 -35q-103 0 -183.5 37.5t-126.5 123.5t-46 231zM245 1455q0 47 28 75t77 28q48 0 76.5 -28t28.5 -75q0 -46 -28.5 -73 t-76.5 -27q-49 0 -77 27t-28 73zM688 1455q0 47 28 75t78 28q48 0 76 -28t28 -75q0 -46 -28 -73t-76 -27q-49 0 -77.5 27t-28.5 73z" />
<glyph unicode="&#xfd;" horiz-adv-x="1083" d="M15 1111h175l403 -1111h-157zM312 -451l171 451l53 118l366 993h165l-591 -1562h-164zM467 1283l220 372h177l-246 -372h-151z" />
<glyph unicode="&#xfe;" horiz-adv-x="1156" d="M155 -451v2106h163v-660h10q52 59 130 96t178 37q116 0 212.5 -53.5t154 -175t57.5 -322.5t-63.5 -333t-188.5 -197.5t-308 -65.5q-47 0 -94.5 4.5t-87.5 9.5v-446h-163zM318 134q37 -8 87 -13.5t97 -5.5q195 0 293 104.5t98 342.5q0 166 -40 258t-109 129.5t-156 37.5 q-75 0 -147.5 -32t-122.5 -102v-719z" />
<glyph unicode="&#xff;" horiz-adv-x="1083" d="M15 1111h175l403 -1111h-157zM216 1455q0 47 28 75t77 28q48 0 76.5 -28t28.5 -75q0 -46 -28.5 -73t-76.5 -27q-49 0 -77 27t-28 73zM312 -451l171 451l53 118l366 993h165l-591 -1562h-164zM659 1455q0 47 28 75t78 28q48 0 76 -28t28 -75q0 -46 -28 -73t-76 -27 q-49 0 -77.5 27t-28.5 73z" />
<glyph unicode="&#x152;" horiz-adv-x="2056" d="M108 758q0 262 87 433t256 254.5t415 83.5q84 0 165.5 -6.5t151.5 -6.5h789v-141h-740v-1235h750v-140h-790q-44 0 -96 -2.5t-107 -5.5t-109 -3q-254 0 -425.5 81.5t-259 251.5t-87.5 436zM280 757q0 -221 65 -359.5t192.5 -202.5t316.5 -64q65 0 117.5 2t96.5 7v1235 q-55 6 -109 9.5t-113 3.5q-188 0 -314 -66.5t-189 -205t-63 -359.5zM1180 708v140h693v-140h-693z" />
<glyph unicode="&#x153;" horiz-adv-x="1819" d="M96 555q0 200 57.5 327t162.5 186.5t245 59.5q141 0 241.5 -61t154 -188t53.5 -324t-54 -324t-155 -188.5t-240 -61.5t-243.5 59.5t-163 186t-58.5 328.5zM263 557q0 -167 37.5 -263.5t105 -138t160.5 -41.5q92 0 160.5 41t105.5 136.5t37 260.5q0 168 -37 264.5 t-105.5 137t-160.5 40.5t-160 -40.5t-105.5 -136t-37.5 -260.5zM884 557l14 15q0 187 50.5 311t145.5 184.5t225 60.5q131 0 225 -60.5t145 -187.5t51 -326v-52h-743v111h622l-37 -28q0 159 -32 252t-92 133t-145 40q-86 0 -148 -40t-95.5 -132.5t-33.5 -248.5v-58 q0 -154 40.5 -245t124 -131.5t210.5 -40.5q62 0 130 11.5t143 33.5v-134q-79 -23 -150.5 -33.5t-141.5 -10.5q-171 0 -284 59.5t-168.5 186.5t-55.5 330z" />
<glyph unicode="&#x178;" horiz-adv-x="1204" d="M-32 1516h184l482 -739h-56l476 739h172l-577 -899l37 124v-741h-167v743l37 -126zM258 1793q0 45 28 70.5t77 25.5q50 0 77.5 -25.5t27.5 -70.5q0 -43 -27.5 -68.5t-77.5 -25.5q-49 0 -77 25.5t-28 68.5zM737 1793q0 45 27.5 70.5t77.5 25.5q49 0 76.5 -25.5t27.5 -70.5 q0 -43 -27.5 -68.5t-76.5 -25.5q-50 0 -77.5 25.5t-27.5 68.5z" />
<glyph unicode="&#x2c6;" horiz-adv-x="1077" d="M312 1283l229 372h147l228 -372h-131l-188 315h35l-189 -315h-131z" />
<glyph unicode="&#x2dc;" horiz-adv-x="1077" d="M297 1383v119q65 69 171 69q45 0 85 -15t77 -30q35 -15 67.5 -27t65.5 -12q50 0 90.5 19t78.5 59v-119q-65 -69 -171 -69q-45 0 -85 15t-77 30q-35 15 -67 27t-66 12q-49 0 -89.5 -19t-79.5 -59z" />
<glyph unicode="&#x2000;" horiz-adv-x="1017" />
<glyph unicode="&#x2001;" horiz-adv-x="2035" />
<glyph unicode="&#x2002;" horiz-adv-x="1017" />
<glyph unicode="&#x2003;" horiz-adv-x="2035" />
<glyph unicode="&#x2004;" horiz-adv-x="678" />
<glyph unicode="&#x2005;" horiz-adv-x="508" />
<glyph unicode="&#x2006;" horiz-adv-x="339" />
<glyph unicode="&#x2007;" horiz-adv-x="339" />
<glyph unicode="&#x2008;" horiz-adv-x="254" />
<glyph unicode="&#x2009;" horiz-adv-x="407" />
<glyph unicode="&#x200a;" horiz-adv-x="113" />
<glyph unicode="&#x2010;" horiz-adv-x="859" d="M153 507v138h554v-138h-554z" />
<glyph unicode="&#x2011;" horiz-adv-x="859" d="M153 507v138h554v-138h-554z" />
<glyph unicode="&#x2012;" horiz-adv-x="859" d="M153 507v138h554v-138h-554z" />
<glyph unicode="&#x2013;" horiz-adv-x="921" d="M0 513v126h922v-126h-922z" />
<glyph unicode="&#x2014;" horiz-adv-x="1843" d="M0 513v126h1843v-126h-1843z" />
<glyph unicode="&#x2018;" horiz-adv-x="472" d="M119 1267q0 106 29 206.5t73 181.5h97q-36 -95 -56 -178t-20 -168l-29 36h24q52 0 84.5 -31t32.5 -84q0 -51 -31 -82t-81 -31q-58 0 -90.5 36.5t-32.5 113.5z" />
<glyph unicode="&#x2019;" horiz-adv-x="472" d="M119 1554q0 52 30.5 83t83.5 31q56 0 88 -36.5t32 -112.5q0 -106 -28.5 -206.5t-73.5 -182.5h-97q36 96 56 179t20 168l29 -36h-22q-53 0 -85.5 31t-32.5 82z" />
<glyph unicode="&#x201a;" horiz-adv-x="472" d="M119 101q0 52 30.5 82.5t83.5 30.5q56 0 88 -36.5t32 -111.5q0 -106 -28.5 -206.5t-73.5 -182.5h-97q36 95 56 178.5t20 167.5l29 -36h-22q-53 0 -85.5 31.5t-32.5 82.5z" />
<glyph unicode="&#x201c;" horiz-adv-x="837" d="M119 1267q0 106 29 206.5t73 181.5h97q-36 -95 -56 -178t-20 -168l-29 36h24q52 0 84.5 -31t32.5 -84q0 -51 -31 -82t-81 -31q-58 0 -90.5 36.5t-32.5 113.5zM485 1267q0 106 29 206.5t73 181.5h97q-36 -95 -56 -178t-20 -168l-29 36h24q52 0 84.5 -31t32.5 -84 q0 -51 -31 -82t-81 -31q-58 0 -90.5 36.5t-32.5 113.5z" />
<glyph unicode="&#x201d;" horiz-adv-x="837" d="M119 1554q0 52 30.5 83t83.5 31q56 0 88 -36.5t32 -112.5q0 -106 -28.5 -206.5t-73.5 -182.5h-97q36 96 56 179t20 168l29 -36h-22q-53 0 -85.5 31t-32.5 82zM485 1554q0 52 30.5 83t83.5 31q56 0 88 -36.5t32 -112.5q0 -106 -28.5 -206.5t-73.5 -182.5h-97q36 96 56 179 t20 168l29 -36h-22q-53 0 -85.5 31t-32.5 82z" />
<glyph unicode="&#x201e;" horiz-adv-x="837" d="M119 101q0 52 30.5 82.5t83.5 30.5q56 0 88 -36.5t32 -111.5q0 -106 -28.5 -206.5t-73.5 -182.5h-97q36 95 56 178.5t20 167.5l29 -36h-22q-53 0 -85.5 31.5t-32.5 82.5zM485 101q0 52 30.5 82.5t83.5 30.5q56 0 88 -36.5t32 -111.5q0 -106 -28.5 -206.5t-73.5 -182.5 h-97q36 95 56 178.5t20 167.5l29 -36h-22q-53 0 -85.5 31.5t-32.5 82.5z" />
<glyph unicode="&#x2022;" horiz-adv-x="728" d="M119 573q0 72 32 127.5t88 87t125 31.5q70 0 125.5 -31.5t87.5 -87t32 -127.5t-32 -127t-87.5 -86.5t-125.5 -31.5q-69 0 -125 31.5t-88 87t-32 126.5z" />
<glyph unicode="&#x2026;" horiz-adv-x="1375" d="M119 100q0 52 31.5 83t86.5 31q53 0 85 -31t32 -83q0 -51 -32.5 -82t-84.5 -31q-53 0 -85.5 30.5t-32.5 82.5zM571 100q0 52 31.5 83t86.5 31q53 0 85 -31t32 -83q0 -51 -32.5 -82t-84.5 -31q-53 0 -85.5 30.5t-32.5 82.5zM1022 100q0 52 31.5 83t86.5 31q53 0 85 -31 t32 -83q0 -51 -32.5 -82t-84.5 -31q-53 0 -85.5 30.5t-32.5 82.5z" />
<glyph unicode="&#x202f;" horiz-adv-x="407" />
<glyph unicode="&#x2039;" horiz-adv-x="618" d="M115 577l260 435h170l-260 -435l260 -437h-170z" />
<glyph unicode="&#x203a;" horiz-adv-x="618" d="M74 140l260 437l-260 435h170l260 -435l-260 -437h-170z" />
<glyph unicode="&#x205f;" horiz-adv-x="508" />
<glyph unicode="&#x20ac;" horiz-adv-x="1327" d="M77 538v111h1027v-111h-1027zM77 887v111h1027v-111h-1027zM256 755q0 274 85 446t242 253t375 81q88 0 168.5 -11.5t159.5 -32.5v-142q-80 24 -159 34.5t-162 10.5q-173 0 -293 -61.5t-182 -201t-62 -372.5q0 -242 63 -380.5t181 -197.5t282 -59q84 0 163 13t169 43 v-141q-76 -27 -162.5 -41.5t-181.5 -14.5q-156 0 -282 41t-216.5 132.5t-139 240t-48.5 360.5z" />
<glyph unicode="&#x2122;" horiz-adv-x="2078" d="M14 1398v118h804v-118h-334v-906h-137v906h-333zM915 492v1024h165l350 -765h-25l345 765h164v-1024h-130v900h36l-345 -757h-120l-351 757h42v-900h-131z" />
<glyph unicode="&#x25fc;" horiz-adv-x="1111" d="M0 0v1111h1111v-1111h-1111z" />
<glyph unicode="&#xfb01;" horiz-adv-x="1207" d="M19 976v135h721v-135h-721zM228 0v1283q0 128 45 215t133.5 132t216.5 45q36 0 74 -3t73 -10v-138q-33 7 -65.5 10t-66.5 3q-123 0 -185 -57t-62 -189v-1291h-163zM857 1455q0 49 29 77t85 28q55 0 84 -28t29 -77q0 -48 -29 -75t-84 -27t-84.5 27t-29.5 75zM889 0v1111 h164v-1111h-164z" />
<glyph unicode="&#xfb02;" horiz-adv-x="1207" d="M19 976v135h721v-135h-721zM228 0v1283q0 128 45 215t133.5 132t216.5 45q36 0 74 -3t73 -10v-138q-33 7 -65.5 10t-66.5 3q-123 0 -185 -57t-62 -189v-1291h-163zM889 0v1655h164v-1655h-164z" />
</font>
</defs>
</svg>
