<?xml version="1.0" standalone="no"?>
<!DOCTYPE svg PUBLIC "-//W3C//DTD SVG 1.1//EN" "http://www.w3.org/Graphics/SVG/1.1/DTD/svg11.dtd" >
<svg xmlns="http://www.w3.org/2000/svg" xmlns:xlink="http://www.w3.org/1999/xlink" version="1.1">
<metadata></metadata>
<defs>
<font id="encode_sanssemibold" horiz-adv-x="535" >
<font-face units-per-em="2048" ascent="1638" descent="-410" />
<missing-glyph horiz-adv-x="509" />
<glyph horiz-adv-x="0" />
<glyph horiz-adv-x="682" />
<glyph horiz-adv-x="0" />
<glyph horiz-adv-x="0" />
<glyph unicode="&#xd;" horiz-adv-x="509" />
<glyph unicode=" "  horiz-adv-x="509" />
<glyph unicode="&#x09;" horiz-adv-x="509" />
<glyph unicode="&#xa0;" horiz-adv-x="509" />
<glyph unicode="!" horiz-adv-x="576" d="M110 144q0 75 48 118.5t130 43.5q83 0 131 -44.5t48 -117.5q0 -72 -49 -115.5t-130 -43.5q-80 0 -129 43.5t-49 115.5zM145 971v545h286v-545l-58 -527h-166z" />
<glyph unicode="&#x22;" horiz-adv-x="876" d="M99 1655h269l-53 -764h-163zM509 1655h269l-53 -764h-163z" />
<glyph unicode="#" horiz-adv-x="1249" d="M102 425v208h1045v-208h-1045zM102 883v208h1045v-208h-1045zM233 0l158 1516h210l-158 -1516h-210zM648 0l158 1516h210l-158 -1516h-210z" />
<glyph unicode="$" horiz-adv-x="1147" d="M63 1089q0 209 151 327.5t456 118.5q92 0 181 -11.5t161 -30.5v-225q-75 22 -160.5 33t-166.5 11q-128 0 -204.5 -25.5t-110 -72.5t-33.5 -111q0 -82 48.5 -128.5t175.5 -80.5l103 -27q144 -36 237.5 -93.5t138.5 -141t45 -198.5q0 -142 -69.5 -243.5t-201.5 -155.5 t-319 -54q-98 0 -203.5 15.5t-196.5 44.5v225q63 -20 133.5 -34t138 -21t125.5 -7q115 0 184.5 24.5t102 72t32.5 115.5q0 87 -54 134.5t-195 83.5l-102 26q-197 50 -297 154.5t-100 274.5zM447 45l254 4v-295h-254v291zM447 1482v279h254v-279h-254z" />
<glyph unicode="%" horiz-adv-x="2055" d="M93 1060q0 164 49 269t137 155.5t203 50.5q116 0 203.5 -50.5t136 -155.5t48.5 -269t-49 -269t-136.5 -155.5t-202.5 -50.5q-116 0 -203.5 50.5t-136.5 155.5t-49 269zM308 1061q0 -114 22 -180t61 -94t91 -28q50 0 89.5 27.5t61.5 93t22 179.5q0 115 -22 181t-61.5 94 t-89.5 28q-52 0 -91 -28t-61 -93.5t-22 -179.5zM579 0l674 1516h224l-675 -1516h-223zM1184 457q0 164 49.5 268.5t137 155.5t202.5 51q116 0 203.5 -51t136.5 -155.5t49 -268.5t-49 -269t-136.5 -155.5t-203.5 -50.5q-115 0 -202.5 50.5t-137 155.5t-49.5 269zM1399 458 q0 -114 22.5 -180.5t61.5 -94.5t90 -28t90.5 27.5t61.5 93.5t22 180t-22 180t-61.5 94t-90.5 28t-90 -28t-61.5 -94t-22.5 -178z" />
<glyph unicode="&#x26;" horiz-adv-x="1602" d="M120 414q0 98 36.5 178.5t102 138t150.5 89.5l141 -111q-77 -45 -117.5 -111t-40.5 -155q0 -81 38 -140t114.5 -91.5t189.5 -32.5q122 0 213 41t142 132t51 242q0 62 -10.5 131.5t-28.5 134.5h220q18 -66 27 -134t9 -130q0 -203 -78 -339.5t-223.5 -205.5t-349.5 -69 q-195 0 -325 54t-195.5 151t-65.5 227zM266 1081q0 213 148.5 333.5t452.5 120.5q75 0 140 -6.5t122 -19.5v-225q-55 13 -118 20.5t-125 7.5q-127 0 -203 -28.5t-109.5 -81t-33.5 -126.5q0 -51 17 -95t59.5 -89.5t118.5 -104.5l868 -608l-127 -199l-868 608 q-135 94 -209 174.5t-103.5 157.5t-29.5 161z" />
<glyph unicode="'" horiz-adv-x="466" d="M99 1655h269l-53 -764h-163z" />
<glyph unicode="(" horiz-adv-x="712" d="M114 602q0 302 83 569t267 484h284q-126 -157 -205 -324.5t-116 -348.5t-37 -380t37 -380t116 -348.5t205 -324.5h-284q-184 218 -267 484.5t-83 568.5z" />
<glyph unicode=")" horiz-adv-x="712" d="M-35 -451q126 157 205 324.5t116 348.5t37 380t-37 380t-116 348.5t-205 324.5h283q186 -217 268.5 -484t82.5 -569t-82.5 -568t-268.5 -485h-283z" />
<glyph unicode="*" horiz-adv-x="998" d="M31 1269l56 174l173 -57l179 -92l-31 199v162h183v-162l-33 -199l180 92l172 57l58 -174l-174 -56l-195 -31l141 -141l98 -135l-148 -107l-98 134l-93 186l-92 -186l-99 -134l-148 107l98 135l140 141l-193 31z" />
<glyph unicode="+" horiz-adv-x="1117" d="M131 674v209h319v334h218v-334h318v-209h-318v-334h-218v334h-319z" />
<glyph unicode="," d="M89 153q0 79 47 123.5t127 44.5q88 0 135 -54.5t47 -165.5q0 -118 -38.5 -233.5t-101.5 -208.5h-154q45 105 70 195t25 181l56 -50h-35q-80 0 -129 45.5t-49 122.5z" />
<glyph unicode="-" horiz-adv-x="905" d="M131 469v220h643v-220h-643z" />
<glyph unicode="." d="M89 153q0 78 48 123t131 45q82 0 130 -46.5t48 -121.5q0 -76 -49 -122t-129 -46q-81 0 -130 45t-49 123z" />
<glyph unicode="/" horiz-adv-x="745" d="M0 -246l479 1901h266l-480 -1901h-265z" />
<glyph unicode="0" horiz-adv-x="1338" d="M103 758q0 274 68.5 445.5t195 251.5t302.5 80t302.5 -80t194.5 -251.5t68 -445.5t-68.5 -446t-195 -251.5t-301.5 -79.5t-301.5 79.5t-195.5 251t-69 446.5zM374 760q0 -213 35 -333.5t102 -170t159 -49.5q91 0 157 49.5t101.5 169.5t35.5 330q0 213 -35.5 333 t-101.5 170t-157 50q-92 0 -158.5 -50t-102 -169.5t-35.5 -329.5z" />
<glyph unicode="1" horiz-adv-x="815" d="M27 944v259l452 318h176v-1521h-274v1348l98 -87z" />
<glyph unicode="2" horiz-adv-x="1068" d="M35 1252v226q45 17 105.5 30t127 20t128.5 7q263 0 400.5 -102t137.5 -324q0 -79 -21 -155.5t-69 -162t-131 -188.5l-356 -446l-10 71h663v-228h-957v147l424 542q69 87 109.5 155.5t58.5 126t18 112.5q0 119 -70.5 174t-223.5 55q-89 0 -176 -16t-158 -44z" />
<glyph unicode="3" horiz-adv-x="1086" d="M47 35v209q88 -26 186.5 -41t188.5 -15q174 0 256.5 62.5t82.5 181.5q0 115 -78.5 177t-256.5 62h-208v211h147q178 0 260.5 61t82.5 171q0 104 -72 158.5t-220 54.5q-85 0 -172.5 -14.5t-166.5 -41.5v209q49 16 110 29t127.5 19.5t128.5 6.5q261 0 394.5 -104.5 t133.5 -293.5q0 -140 -82.5 -236t-225.5 -127l1 19q172 -24 264 -119.5t92 -256.5q0 -136 -65 -234t-195.5 -150t-328.5 -52q-101 0 -198.5 13.5t-185.5 40.5z" />
<glyph unicode="4" horiz-adv-x="1269" d="M42 330v150l549 1036h266l-546 -1037l-31 65h954v-214h-1192zM784 0v544l29 460h218v-1004h-247z" />
<glyph unicode="5" horiz-adv-x="1097" d="M75 38v209q86 -26 184.5 -41.5t190.5 -15.5q174 0 255 62.5t81 184.5q0 81 -40.5 135t-143 84.5t-286.5 40.5l-191 12l52 807h807v-214h-675l120 116l-41 -606l-164 101l193 -10q224 -13 363 -67.5t203 -151.5t64 -241q0 -225 -149 -343.5t-439 -118.5q-102 0 -200 15 t-184 42z" />
<glyph unicode="6" horiz-adv-x="1244" d="M114 709q0 282 82 465t238 272t380 89q82 0 158 -10.5t140 -35.5v-213q-66 25 -139 36t-147 11q-148 0 -247.5 -57.5t-148.5 -177.5t-49 -309v-109q0 -141 21.5 -236t61.5 -150t95.5 -78.5t125.5 -23.5q73 0 129.5 27t89.5 83.5t33 145.5t-34.5 146.5t-97.5 84.5t-148 27 q-56 0 -115 -13t-112.5 -43t-94.5 -76v199q61 63 163 98.5t211 35.5q138 0 246 -48t170 -148t62 -255q0 -148 -62.5 -252.5t-175.5 -158.5t-266 -54q-127 0 -231.5 40t-180 127.5t-116.5 226t-41 334.5z" />
<glyph unicode="7" horiz-adv-x="1016" d="M11 1287v229h947v-148l-513 -1368h-281l531 1369l88 -82h-772z" />
<glyph unicode="8" horiz-adv-x="1338" d="M89 379q0 138 85.5 241t242.5 154l184 -72q-128 -40 -191 -119t-63 -174q0 -113 81.5 -174t247.5 -61q158 0 235.5 57t77.5 160q0 68 -31.5 115.5t-110 84t-217.5 71.5q-184 45 -293.5 111t-156.5 153.5t-47 196.5q0 123 62.5 216t185 144.5t301.5 51.5 q246 0 382.5 -102.5t136.5 -280.5q0 -84 -30.5 -156.5t-96.5 -131.5t-171 -100l-170 73q123 56 177 125t54 164q0 104 -73.5 159.5t-211.5 55.5q-145 0 -215 -57t-70 -150q0 -67 30 -114.5t107.5 -86.5t224.5 -76q184 -49 291.5 -111.5t153 -146t45.5 -192.5 q0 -124 -64.5 -220.5t-191.5 -151t-315 -54.5q-199 0 -329 49.5t-193.5 139t-63.5 209.5z" />
<glyph unicode="9" horiz-adv-x="1244" d="M57 1070q0 148 62.5 252.5t175.5 158.5t266 54q127 0 231.5 -40t180 -127.5t116.5 -226t41 -334.5q0 -282 -82 -465t-238 -272t-380 -89q-82 0 -158 10.5t-140 35.5v213q66 -25 139 -36t147 -11q148 0 247.5 57.5t148.5 177.5t49 309v109q0 141 -21.5 236t-61.5 150 t-95.5 78.5t-125.5 23.5q-73 0 -129.5 -27t-89.5 -83.5t-33 -145.5t34.5 -146.5t97.5 -84.5t148 -27q56 0 115 13t112.5 43t94.5 76v-199q-61 -63 -163 -98.5t-211 -35.5q-138 0 -246 48t-170 148t-62 255z" />
<glyph unicode=":" d="M89 153q0 78 48 123t131 45q82 0 130 -46.5t48 -121.5q0 -76 -49 -122t-129 -46q-81 0 -130 45t-49 123zM89 965q0 78 48 123t131 45q82 0 130 -46.5t48 -121.5q0 -76 -49 -122t-129 -46q-81 0 -130 45t-49 123z" />
<glyph unicode=";" d="M89 153q0 79 47 123.5t127 44.5q88 0 135 -54.5t47 -165.5q0 -118 -38.5 -233.5t-101.5 -208.5h-154q45 105 70 195t25 181l56 -50h-35q-80 0 -129 45.5t-49 122.5zM89 965q0 78 48 123t131 45q82 0 130 -46.5t48 -121.5q0 -76 -49 -122t-129 -46q-81 0 -130 45t-49 123z " />
<glyph unicode="&#x3c;" horiz-adv-x="1117" d="M131 652v252l855 337v-212l-698 -266v34l698 -270v-212z" />
<glyph unicode="=" horiz-adv-x="1117" d="M131 456v208h855v-208h-855zM131 893v208h855v-208h-855z" />
<glyph unicode="&#x3e;" horiz-adv-x="1117" d="M131 315v212l698 270v-34l-698 266v212l855 -337v-252z" />
<glyph unicode="?" horiz-adv-x="983" d="M35 1265v215q49 16 110 29t127.5 19.5t128.5 6.5q261 0 394.5 -104.5t133.5 -296.5q0 -109 -42.5 -191.5t-127.5 -143t-215 -103.5l-21 -259h-166l-46 390q137 34 214 74.5t109 93t32 117.5q0 102 -72 156t-222 54q-84 0 -171 -14.5t-166 -42.5zM262 144q0 75 48 118.5 t130 43.5q83 0 131.5 -44.5t48.5 -117.5q0 -71 -49 -115t-131 -44q-80 0 -129 43.5t-49 115.5z" />
<glyph unicode="@" horiz-adv-x="2077" d="M93 532q0 347 113 568.5t326 327.5t515 106q303 0 512 -103t317.5 -311.5t108.5 -523.5q0 -224 -55.5 -360t-153 -195.5t-222.5 -59.5q-108 0 -181 38.5t-109 112.5h-17q-43 -80 -126 -115.5t-179 -35.5q-166 0 -259.5 85.5t-93.5 230.5q0 154 104.5 239.5t333.5 103.5 l263 25l27 -151l-265 -26q-101 -10 -149 -49.5t-48 -113.5q0 -76 46 -113.5t125 -37.5q52 0 111 22t103 71v430q0 83 -27 131t-84.5 67.5t-147.5 19.5q-66 0 -145 -12.5t-155 -39.5l1 206q77 27 169 40.5t174 13.5q162 0 268 -41t158 -136.5t52 -259.5v-389q0 -73 28 -105 t81 -32q50 0 91 36.5t65 130t24 260.5q0 206 -46 351t-139 237.5t-232.5 136t-327.5 43.5q-186 0 -326 -45t-233.5 -143t-140 -254t-46.5 -378q0 -224 47.5 -382t144.5 -256.5t245 -143.5t348 -45q115 0 223.5 14.5t221.5 43.5v-181q-104 -27 -216 -41.5t-229 -14.5 q-321 0 -541.5 106t-336 327.5t-115.5 569.5z" />
<glyph unicode="A" horiz-adv-x="1453" d="M19 0l509 1516h397l509 -1516h-272l-453 1394h31l-452 -1394h-269zM341 435l59 220h652l59 -220h-770z" />
<glyph unicode="B" horiz-adv-x="1338" d="M150 12v1473q68 14 143.5 25.5t155.5 17t161 5.5q218 0 356.5 -45.5t203 -138.5t64.5 -232q0 -85 -32 -156.5t-96 -120t-160 -66.5l2 13q157 -20 243 -113.5t86 -252.5q0 -105 -39 -186.5t-124.5 -137t-222 -84t-333.5 -28.5q-62 0 -132 3t-141 9t-135 15zM386 671v209 h277q115 0 183 25t99 74.5t31 124.5q0 120 -75.5 172.5t-256.5 52.5q-68 0 -122 -4.5t-105 -13.5v-1112q55 -6 105.5 -8.5t104.5 -2.5q150 0 236 27t122.5 80.5t36.5 135.5q0 124 -78 182t-251 58h-307z" />
<glyph unicode="C" horiz-adv-x="1235" d="M93 755q0 265 90.5 438t262.5 257.5t417 84.5q87 0 168 -9.5t159 -29.5v-228q-75 19 -151 28.5t-156 9.5q-167 0 -278.5 -54.5t-167.5 -175t-56 -317.5q0 -204 56.5 -324.5t165.5 -172.5t268 -52q80 0 158 12t161 38v-228q-74 -24 -162 -37.5t-181 -13.5 q-177 0 -317 43.5t-237 136t-148.5 240t-51.5 354.5z" />
<glyph unicode="D" horiz-adv-x="1500" d="M150 9v1476q67 14 143 25t154 16.5t153 5.5q399 0 602.5 -189t203.5 -585q0 -270 -95.5 -441t-286.5 -251t-479 -80q-61 0 -126.5 2.5t-133 7.5t-135.5 13zM423 220q46 -5 91.5 -7t97.5 -2q171 0 285.5 55t170.5 175.5t56 317.5q0 196 -56 316.5t-169.5 176.5t-281.5 56 q-45 0 -95.5 -5t-98.5 -13v-1070z" />
<glyph unicode="E" horiz-adv-x="1252" d="M150 0v1516h1018v-223h-748v-1071h759v-222h-1029zM314 665v222h752v-222h-752z" />
<glyph unicode="F" horiz-adv-x="1210" d="M150 0v1516h1014v-226h-741v-1290h-273zM328 636v225h733v-225h-733z" />
<glyph unicode="G" horiz-adv-x="1431" d="M93 755q0 266 96.5 438.5t279.5 257t442 84.5q88 0 173 -10.5t168 -30.5v-228q-84 22 -161.5 31t-156.5 9q-183 0 -306 -54.5t-185.5 -176.5t-62.5 -323q0 -190 58.5 -309.5t176 -175t293.5 -55.5q66 0 128.5 5t115.5 14l-116 -104v610h257v-721q-97 -16 -186 -23.5 t-178 -7.5q-278 0 -463 82.5t-279 252.5t-94 435z" />
<glyph unicode="H" horiz-adv-x="1532" d="M150 0v1516h273v-619h687v619h273v-1516h-273v654h-687v-654h-273z" />
<glyph unicode="I" horiz-adv-x="572" d="M150 0v1516h273v-1516h-273z" />
<glyph unicode="J" horiz-adv-x="572" d="M-17 -238q60 83 97.5 162.5t54 170t16.5 208.5v1213h272v-1219q0 -127 -26 -234.5t-84.5 -209t-154.5 -209.5z" />
<glyph unicode="K" horiz-adv-x="1328" d="M150 0v1516h273v-1516h-273zM384 654v243h242v-243h-242zM514 773l518 743h291l-540 -774l4 73l580 -815h-301z" />
<glyph unicode="L" horiz-adv-x="1147" d="M150 0v1516h273v-1286h715v-230h-988z" />
<glyph unicode="M" horiz-adv-x="1880" d="M154 0v1516h331l479 -1064h-38l469 1064h331v-1516h-256v1276h60l-475 -1060h-230l-486 1060h71v-1276h-256z" />
<glyph unicode="N" horiz-adv-x="1553" d="M150 0v1516h276l771 -1182h-51v1182h258v-1516h-277l-771 1182h52v-1182h-258z" />
<glyph unicode="O" horiz-adv-x="1555" d="M93 758q0 267 85.5 439t239 255t359.5 83q207 0 360.5 -83t238.5 -255.5t85 -438.5t-85 -439t-239 -255.5t-360 -82.5t-359.5 82.5t-239 254.5t-85.5 440zM375 764q0 -205 49 -328t139 -177t214 -54q125 0 215 54t139 174.5t49 318.5q0 204 -49.5 326.5t-139.5 177.5 t-214 55q-123 0 -213.5 -54t-139.5 -174t-49 -319z" />
<glyph unicode="P" horiz-adv-x="1317" d="M150 0v1490q102 20 208.5 31.5t225.5 11.5q325 0 489 -129t164 -408q0 -263 -161 -399.5t-487 -136.5q-44 0 -83.5 1.5t-82.5 5.5v-467h-273zM423 679q42 -5 82 -7.5t87 -2.5q198 0 288 77.5t90 247.5q0 173 -89 251.5t-274 78.5q-53 0 -97 -3.5t-87 -11.5v-630z" />
<glyph unicode="Q" horiz-adv-x="1555" d="M93 753q0 269 85.5 442.5t239 256.5t359.5 83q207 0 360.5 -82.5t238.5 -254.5t85 -440q0 -239 -72 -407.5t-216 -257.5t-359 -89q-35 0 -71 2.5t-75 6.5l78 70q111 -44 226 -75t233 -50.5t235 -33.5l-45 -217q-302 43 -523.5 108t-371.5 154.5t-239 205.5t-128.5 260 t-39.5 318zM375 764q0 -206 48.5 -328.5t138.5 -176.5t215 -54t215 54t139 174.5t49 318.5q0 204 -49.5 326.5t-139.5 177.5t-214 55q-123 0 -213.5 -54t-139.5 -174t-49 -319z" />
<glyph unicode="R" horiz-adv-x="1385" d="M150 0v1485q65 13 137 24.5t150.5 17.5t160.5 6q317 0 475.5 -115t158.5 -359q0 -158 -75.5 -264.5t-217 -160t-342.5 -53.5q-52 0 -93 2t-85 4v-587h-269zM419 797q33 -3 61 -5t57 -3.5t64 -1.5q193 0 283 65.5t90 206.5q0 94 -37.5 153.5t-115 87.5t-196.5 28 q-61 0 -110 -5t-96 -13v-513zM548 705h296l511 -705h-303z" />
<glyph unicode="S" horiz-adv-x="1147" d="M63 1089q0 209 149.5 327.5t449.5 118.5q97 0 187.5 -12t162.5 -33v-225q-75 24 -162 35.5t-174 11.5q-124 0 -198.5 -25.5t-107.5 -72.5t-33 -111q0 -82 48.5 -128.5t175.5 -80.5l103 -27q144 -36 237.5 -93.5t138.5 -141t45 -198.5q0 -142 -69.5 -243.5t-200 -155.5 t-314.5 -54q-103 0 -209 16t-197 47v225q63 -22 133.5 -36t140 -21.5t132.5 -7.5q165 0 237.5 55t72.5 157q0 87 -54 134.5t-195 83.5l-102 26q-197 50 -297 154.5t-100 274.5z" />
<glyph unicode="T" horiz-adv-x="1276" d="M13 1285v231h1250v-231h-488v-1285h-274v1285h-488z" />
<glyph unicode="U" horiz-adv-x="1502" d="M142 608v908h275v-934q0 -197 83 -285.5t255 -88.5t254.5 88.5t82.5 285.5v934h269v-908q0 -213 -64.5 -352t-198.5 -207t-343 -68q-212 0 -347.5 68t-200.5 207t-65 352z" />
<glyph unicode="V" horiz-adv-x="1423" d="M4 1516h288l457 -1400h-60l462 1400h268l-506 -1516h-403z" />
<glyph unicode="W" horiz-adv-x="2274" d="M40 1516h278l361 -1393h-69l381 1393h307l371 -1393h-62l366 1393h261l-409 -1516h-354l-364 1347h72l-376 -1347h-353z" />
<glyph unicode="X" horiz-adv-x="1373" d="M-17 0l541 780l163 204l368 532h298l-506 -733l-163 -202l-399 -581h-302zM13 1516h306l368 -532l160 -201l542 -783h-307l-398 581l-160 199z" />
<glyph unicode="Y" horiz-adv-x="1276" d="M-46 1516h294l438 -695h-81l433 695h274l-592 -954l57 199v-761h-274v764l56 -202z" />
<glyph unicode="Z" horiz-adv-x="1238" d="M61 0v151l785 1190l6 -55h-779v230h1092v-151l-784 -1191l-6 55h802v-229h-1116z" />
<glyph unicode="[" horiz-adv-x="712" d="M170 -451v2106h575v-214h-306v-1678h301v-214h-570z" />
<glyph unicode="\" horiz-adv-x="746" d="M0 1655h266l480 -1901h-266z" />
<glyph unicode="]" horiz-adv-x="712" d="M-33 1441v214h576v-2106h-571v214h301v1678h-306z" />
<glyph unicode="^" horiz-adv-x="1249" d="M78 758l416 758h261l416 -758h-264l-335 623h105l-335 -623h-264z" />
<glyph unicode="_" horiz-adv-x="1207" d="M92 -1h1023v-214h-1023v214z" />
<glyph unicode="`" horiz-adv-x="1135" d="M224 1655h287l226 -385h-245z" />
<glyph unicode="a" horiz-adv-x="1112" d="M75 297q0 154 105 240.5t338 103.5l258 25l29 -156l-261 -24q-108 -10 -155 -51t-47 -112q0 -73 43 -112t127 -39q55 0 111.5 21.5t102.5 71.5v440q0 85 -27 133.5t-86 68.5t-153 20q-63 0 -144.5 -11.5t-157.5 -34.5v205q79 24 172.5 36.5t175.5 12.5q165 0 272 -41.5 t159 -139.5t52 -266v-688h-222l-19 116h-14q-51 -69 -131.5 -102t-173.5 -33q-167 0 -260.5 86.5t-93.5 229.5z" />
<glyph unicode="b" horiz-adv-x="1222" d="M133 38v1617h269v-649h14q50 59 124.5 94t171.5 35q117 0 215 -56.5t157 -178.5t59 -319q0 -298 -152 -449.5t-457 -151.5q-100 0 -205 14t-196 44zM402 207q31 -8 71 -14t83 -6q156 0 235.5 86t79.5 285q0 138 -32.5 215t-90.5 107.5t-134 30.5q-58 0 -114.5 -21.5 t-97.5 -66.5v-616z" />
<glyph unicode="c" horiz-adv-x="953" d="M80 557q0 199 68.5 327t199.5 189.5t319 61.5q65 0 125.5 -7t115.5 -20v-216q-53 11 -104 17t-103 6q-118 0 -194 -35t-113 -113.5t-37 -206.5q0 -131 35.5 -211t105 -115t173.5 -35q53 0 109.5 9.5t127.5 30.5v-216q-62 -20 -133 -31.5t-145 -11.5q-177 0 -300 61.5 t-186.5 189.5t-63.5 326z" />
<glyph unicode="d" horiz-adv-x="1222" d="M80 536q0 197 67.5 330t199.5 201.5t326 68.5q39 0 77 -3.5t70 -8.5v531h270v-1655h-227l-17 119h-13q-49 -61 -125.5 -99.5t-176.5 -38.5q-123 0 -225.5 55.5t-164 178t-61.5 321.5zM351 557q0 -137 32.5 -214t90 -108.5t133.5 -31.5q58 0 115.5 23.5t97.5 73.5v612 q-30 6 -69.5 11t-78.5 5q-159 0 -240 -86t-81 -285z" />
<glyph unicode="e" horiz-adv-x="1106" d="M80 559q0 189 59 317.5t169.5 193.5t266.5 65q151 0 255 -65t157 -195.5t53 -323.5v-73h-809v162h605l-48 -23q0 127 -24.5 202t-72.5 107t-119 32t-121 -31.5t-76 -106.5t-26 -202v-104q0 -121 34.5 -193t111 -103.5t205.5 -31.5q65 0 135.5 10.5t145.5 28.5v-206 q-86 -22 -163 -30.5t-154 -8.5q-198 0 -327.5 59.5t-193 187.5t-63.5 332z" />
<glyph unicode="f" horiz-adv-x="790" d="M24 903v214h773v-214h-773zM215 0v1228q0 142 53.5 242t157.5 152.5t257 52.5q42 0 81.5 -3t77.5 -9v-214q-32 5 -61 7.5t-60 2.5q-123 0 -181 -51.5t-58 -167.5v-1240h-267z" />
<glyph unicode="g" horiz-adv-x="1222" d="M80 536q0 294 152.5 446.5t457.5 152.5q67 0 137.5 -7t137.5 -20t125 -32v-995q0 -293 -143 -422.5t-434 -129.5q-84 0 -177.5 11t-179.5 36v214q91 -27 177 -39t161 -12q170 0 248 67t78 227v86h-13q-49 -58 -124 -93t-172 -35q-115 0 -213 56t-158 176t-60 313z M351 559q0 -135 33 -211t90.5 -106t133.5 -30q58 0 115 21.5t97 67.5v608q-30 8 -69.5 13.5t-83.5 5.5q-153 0 -234.5 -85.5t-81.5 -283.5z" />
<glyph unicode="h" horiz-adv-x="1220" d="M133 0v1655h269v-655h14q61 66 142.5 100.5t178.5 34.5q101 0 183 -41.5t130 -135t48 -246.5v-712h-270v694q0 117 -50 161.5t-134 44.5q-42 0 -86 -11t-84.5 -36.5t-71.5 -62.5v-790h-269z" />
<glyph unicode="i" horiz-adv-x="536" d="M97 1454q0 70 42.5 108.5t128.5 38.5q87 0 129 -38.5t42 -108.5q0 -69 -42 -107.5t-129 -38.5q-86 0 -128.5 38.5t-42.5 107.5zM133 0v1117h269v-1117h-269z" />
<glyph unicode="j" horiz-adv-x="536" d="M-35 -364q61 83 98 164.5t53.5 173t16.5 204.5v939h269v-927q0 -131 -25.5 -242.5t-83.5 -215.5t-153 -212zM94 1457q0 70 42.5 108.5t128.5 38.5q87 0 129 -38.5t42 -108.5q0 -69 -42 -107.5t-129 -38.5q-86 0 -128.5 38.5t-42.5 107.5z" />
<glyph unicode="k" horiz-adv-x="1156" d="M133 0v1655h269v-1655h-269zM377 464v218h200v-218h-200zM477 573l384 544h290l-399 -574v71l435 -614h-296z" />
<glyph unicode="l" d="M133 0v1655h269v-1655h-269z" />
<glyph unicode="m" horiz-adv-x="1808" d="M133 0v1117h223l19 -119h13q61 68 141.5 102.5t176.5 34.5q97 0 173.5 -41t120.5 -133t44 -242v-719h-263v696q0 116 -44.5 160.5t-118.5 44.5q-38 0 -77.5 -11.5t-75.5 -37.5t-63 -66v-786h-269zM964 956q78 97 173.5 138t188.5 41q103 0 184 -41.5t127.5 -135 t46.5 -247.5v-711h-268v696q0 116 -47 160.5t-122 44.5q-39 0 -81 -12t-79.5 -40.5t-65.5 -75.5z" />
<glyph unicode="n" horiz-adv-x="1220" d="M133 0v1117h223l19 -118h13q65 66 151 101t185 35q109 0 193 -42t132.5 -135t48.5 -247v-711h-270v695q0 116 -49 161t-135 45q-41 0 -85 -11t-85 -36t-72 -64v-790h-269z" />
<glyph unicode="o" horiz-adv-x="1199" d="M80 556q0 198 62.5 326t179 190.5t278.5 62.5t278.5 -62.5t178.5 -190.5t62 -325q0 -196 -63.5 -324.5t-180 -190.5t-275.5 -62t-275.5 62t-180.5 189.5t-64 324.5zM351 559q0 -142 30 -223.5t85.5 -115.5t133.5 -34t133 34t85 114.5t30 220.5q0 142 -30 223.5 t-85.5 115.5t-132.5 34q-78 0 -133.5 -34t-85.5 -114.5t-30 -220.5z" />
<glyph unicode="p" horiz-adv-x="1222" d="M133 -451v1568h227l17 -121h13q49 62 125.5 100.5t175.5 38.5q123 0 226 -55.5t164.5 -177.5t61.5 -322q0 -197 -67 -330.5t-199.5 -201.5t-326.5 -68q-38 0 -76.5 3t-71.5 7v-441h-269zM402 203q31 -6 71 -11t78 -5q160 0 240 86t80 285q0 138 -32.5 215t-90 108 t-132.5 31q-59 0 -116.5 -23t-97.5 -74v-612z" />
<glyph unicode="q" horiz-adv-x="1222" d="M80 534q0 299 152.5 450t456.5 151q68 0 138.5 -7t137.5 -20t125 -32v-1527h-270v560h-13q-49 -59 -124 -94t-172 -35q-117 0 -215 56t-157 178.5t-59 319.5zM351 556q0 -137 33 -214t90.5 -108t133.5 -31q58 0 115 22t97 67v617q-30 8 -69.5 13.5t-83.5 5.5 q-153 0 -234.5 -86t-81.5 -286z" />
<glyph unicode="r" horiz-adv-x="797" d="M133 0v1117h221l22 -146h13q51 82 132 120.5t175 38.5q25 0 48 -2t41 -5v-244q-25 4 -51.5 5.5t-53.5 1.5q-50 0 -102.5 -14t-98.5 -41.5t-77 -69.5v-761h-269z" />
<glyph unicode="s" horiz-adv-x="973" d="M73 790q0 154 122 249.5t374 95.5q79 0 152.5 -9t134.5 -26v-202q-66 18 -136 27.5t-142 9.5q-98 0 -153 -19t-77.5 -50.5t-22.5 -69.5q0 -46 27.5 -76.5t96.5 -44.5l169 -32q152 -30 225 -103t73 -212q0 -162 -123.5 -255t-352.5 -93q-92 0 -178 11.5t-163 35.5v201 q82 -25 166.5 -37t171.5 -12q123 0 175.5 36.5t52.5 100.5q0 54 -29 83t-97 42l-171 33q-156 31 -225.5 109.5t-69.5 206.5z" />
<glyph unicode="t" horiz-adv-x="829" d="M15 903v214h775v-214h-775zM207 382v735l48 399h221v-1092q0 -124 48 -172t152 -48q29 0 58.5 3.5t65.5 10.5v-216q-43 -9 -94 -15.5t-100 -6.5q-191 0 -295 96t-104 306z" />
<glyph unicode="u" horiz-adv-x="1211" d="M124 403v714h268v-697q0 -116 50 -161t129 -45q40 0 83.5 12t83.5 37t71 63v791h269v-1117h-223l-18 116h-13q-66 -67 -149.5 -101t-175.5 -34q-110 0 -194.5 42t-132.5 134.5t-48 245.5z" />
<glyph unicode="v" horiz-adv-x="1155" d="M5 1117h282l310 -908h-24l311 908h266l-404 -1117h-338z" />
<glyph unicode="w" horiz-adv-x="1811" d="M50 1117h257l228 -861h-17l243 861h302l240 -861h-21l232 861h247l-308 -1117h-302l-252 892h19l-255 -892h-303z" />
<glyph unicode="x" horiz-adv-x="1110" d="M1 0l395 562l163 193l251 362h290l-387 -551l-160 -190l-261 -376h-291zM8 1117h298l253 -362l154 -189l399 -566h-299l-260 376l-157 186z" />
<glyph unicode="y" horiz-adv-x="1155" d="M5 1117h282l372 -1117h-251zM318 -451l164 451l91 209l311 908h266l-566 -1568h-266z" />
<glyph unicode="z" horiz-adv-x="1003" d="M66 0v169l579 785v-51h-568v214h862v-170l-579 -785v52h590v-214h-884z" />
<glyph unicode="{" horiz-adv-x="753" d="M19 536v214h46q70 0 108 37t38 110v395q0 189 103.5 286t306.5 97q48 0 90 -3.5t75 -8.5v-206h-123q-91 0 -137 -40t-46 -131v-381q0 -130 -66.5 -199.5t-220.5 -78.5v31q155 -8 221 -78t66 -200v-462q0 -90 45.5 -130.5t137.5 -40.5h123v-206q-34 -5 -75.5 -8.5 t-89.5 -3.5q-203 0 -306.5 97.5t-103.5 285.5v476q0 74 -38.5 111t-107.5 37h-46z" />
<glyph unicode="|" horiz-adv-x="542" d="M150 -451v2106h243v-2106h-243z" />
<glyph unicode="}" horiz-adv-x="753" d="M-33 -253h124q91 0 136.5 40.5t45.5 130.5v462q0 130 68 200t220 78v-31q-153 9 -220.5 78.5t-67.5 199.5v381q0 91 -45.5 131t-136.5 40h-124v206q35 5 76.5 8.5t89.5 3.5q204 0 307 -96.5t103 -286.5v-395q0 -73 38.5 -110t107.5 -37h45v-214h-45q-70 0 -108 -37 t-38 -111v-476q0 -188 -103 -285.5t-307 -97.5q-48 0 -89.5 3.5t-76.5 8.5v206z" />
<glyph unicode="~" horiz-adv-x="1117" d="M131 622v217q87 99 233 99q59 0 112.5 -20.5t104.5 -44.5q47 -22 90.5 -38.5t86.5 -16.5q68 0 122 27t106 85v-218q-86 -99 -232 -99q-58 0 -112 20.5t-105 44.5q-46 20 -90 37.5t-88 17.5q-67 0 -120.5 -27t-107.5 -84z" />
<glyph unicode="&#xa1;" horiz-adv-x="576" d="M110 965q0 79 49 123.5t130 44.5q80 0 129 -46t49 -122t-48 -122.5t-130 -46.5q-83 0 -131 46t-48 123zM145 139l62 519h166l58 -519v-528h-286v528z" />
<glyph unicode="&#xa2;" horiz-adv-x="958" d="M80 557q0 199 68.5 327t199.5 189.5t319 61.5q66 0 125.5 -7t115.5 -20v-216q-54 11 -105 17t-103 6q-119 0 -194.5 -35t-112 -113.5t-36.5 -206.5q0 -131 35.5 -211t105 -115t173.5 -35q53 0 109.5 9.5t127.5 30.5v-216q-62 -20 -133 -31.5t-145 -11.5q-177 0 -300 61.5 t-186.5 189.5t-63.5 326zM489 34h232v-280h-232v280zM489 1083v280h232v-280h-232z" />
<glyph unicode="&#xa3;" horiz-adv-x="1347" d="M77 0v221h1205v-221h-1205zM77 667v202h970v-202h-970zM286 84v957q0 245 152.5 369.5t457.5 124.5q92 0 181 -11.5t161 -30.5v-225q-75 22 -160.5 33t-165.5 11q-129 0 -208 -26t-115.5 -83.5t-36.5 -150.5v-968h-266z" />
<glyph unicode="&#xa4;" horiz-adv-x="1249" d="M95 1150l136 136l111 -114l156 -186l-103 -101l-185 154zM96 366l114 110l180 151l104 -104l-151 -180l-111 -114zM262 758q0 110 46.5 192t128.5 127.5t188 45.5q104 0 186 -45.5t129 -128t47 -191.5q0 -111 -47 -193.5t-129 -128.5t-186 -46q-105 0 -187.5 46 t-129 128.5t-46.5 193.5zM426 758q0 -100 56.5 -157t142.5 -57q87 0 142.5 56t55.5 158q0 93 -52 153.5t-144 60.5q-88 0 -144.5 -57t-56.5 -157zM752 986l155 186l111 114l136 -136l-115 -111l-185 -154zM756 523l103 104l180 -151l114 -110l-136 -137l-111 114z" />
<glyph unicode="&#xa5;" horiz-adv-x="1299" d="M-33 1516h294l436 -695h-80l435 695h273l-593 -954l56 199v-761h-274v764l56 -202zM193 282v164h917v-164h-917zM193 627v165h917v-165h-917z" />
<glyph unicode="&#xa6;" horiz-adv-x="542" d="M150 348h243v-799h-243v799zM150 856v799h243v-799h-243z" />
<glyph unicode="&#xa7;" horiz-adv-x="1101" d="M103 782q0 85 42.5 150t115.5 109l145 -98q-41 -34 -60 -69.5t-19 -76.5q0 -54 31.5 -90.5t109.5 -54.5l202 -40q144 -31 215 -100t71 -189q0 -158 -122 -250.5t-363 -92.5q-81 0 -165 10.5t-161 31.5v191q83 -23 163 -33t161 -10q90 0 143 16.5t76 47.5t23 73 q0 55 -29.5 84t-96.5 43l-201 40q-136 30 -208.5 104.5t-72.5 203.5zM139 1190q0 101 53 178.5t164.5 121t287.5 43.5q72 0 141.5 -7t130.5 -22v-191q-67 16 -128 22.5t-125 6.5q-109 0 -169.5 -18.5t-84.5 -50.5t-24 -70q0 -47 28.5 -77t96.5 -46l206 -39 q140 -29 210.5 -101.5t70.5 -204.5q0 -90 -44 -156t-120 -111l-151 101q50 35 71 70t21 78q0 59 -32 94t-111 52l-201 40q-144 30 -217.5 101t-73.5 186z" />
<glyph unicode="&#xa8;" horiz-adv-x="1135" d="M222 1454q0 67 39.5 105t112.5 38t112 -38t39 -105t-39 -104.5t-112 -37.5t-112.5 38t-39.5 104zM703 1454q0 67 39.5 105t112.5 38t112.5 -38t39.5 -105t-39.5 -104.5t-112.5 -37.5t-112.5 38t-39.5 104z" />
<glyph unicode="&#xa9;" horiz-adv-x="1717" d="M93 758q0 234 96 409.5t268 273t402 97.5q229 0 401.5 -97.5t268 -273t95.5 -409.5t-95.5 -410t-268 -273.5t-401.5 -97.5q-230 0 -402 97.5t-268 273t-96 410.5zM249 758q0 -193 73.5 -334t210.5 -218.5t326 -77.5q188 0 325 77.5t210.5 218.5t73.5 334t-73.5 334 t-210 218.5t-325.5 77.5t-326 -77.5t-210.5 -219t-73.5 -333.5zM485 751q0 201 119 310.5t329 109.5q54 0 102 -6t94 -19v-170q-47 11 -89.5 16t-90.5 5q-130 0 -196 -60.5t-66 -183.5q0 -124 65 -185.5t180 -61.5q44 0 90 7t107 26v-171q-45 -17 -99.5 -26.5t-116.5 -9.5 q-194 0 -311 108t-117 311z" />
<glyph unicode="&#xaa;" horiz-adv-x="933" d="M50 864q0 128 87 196t283 81l217 17l29 -128l-212 -16q-83 -6 -120 -36t-37 -84q0 -56 35 -86t102 -30q41 0 82.5 15.5t75.5 49.5v350q0 56 -21 90t-69 48.5t-128 14.5q-57 0 -123.5 -9.5t-129.5 -28.5v186q70 19 148.5 29t149.5 10q144 0 237.5 -35t138.5 -116.5 t45 -219.5v-537h-208l-19 93h-12q-42 -55 -109 -82.5t-145 -27.5q-142 0 -219.5 71.5t-77.5 184.5z" />
<glyph unicode="&#xab;" horiz-adv-x="1175" d="M96 579l258 441h275l-258 -441l258 -441h-275zM588 579l258 441h275l-258 -441l258 -441h-275z" />
<glyph unicode="&#xac;" horiz-adv-x="1364" d="M131 674v209h1110v-682h-218v473h-892z" />
<glyph unicode="&#xad;" horiz-adv-x="905" d="M131 469v220h643v-220h-643z" />
<glyph unicode="&#xae;" horiz-adv-x="1495" d="M123 903q0 186 79 328.5t219.5 222.5t326.5 80q185 0 325.5 -80t219.5 -222t79 -329q0 -186 -79 -328t-219.5 -221.5t-325.5 -79.5t-326 79.5t-220 221.5t-79 328zM249 903q0 -155 61.5 -269.5t174 -178t263.5 -63.5q152 0 263.5 63.5t173.5 178.5t62 269q0 156 -62 271 t-174 178.5t-263 63.5t-263.5 -63.5t-174 -178.5t-61.5 -271zM527 614v607h209q131 0 196 -51t65 -149t-64 -148t-197 -50h-83l-3 -209h-123zM653 926h104q120 0 120 95q0 97 -120 97h-104v-192zM740 831l120 27l167 -244h-137z" />
<glyph unicode="&#xaf;" horiz-adv-x="1135" d="M267 1372v166h695v-166h-695z" />
<glyph unicode="&#xb0;" horiz-adv-x="997" d="M123 1162q0 109 48.5 193t133.5 131.5t194 47.5t193.5 -47.5t133 -131.5t48.5 -193q0 -108 -48.5 -191.5t-133 -131.5t-193.5 -48t-194 48t-133.5 132t-48.5 191zM296 1163q0 -97 58 -154t145 -57q88 0 145.5 57t57.5 153q0 98 -58 154t-145 56t-145 -55.5t-58 -153.5z " />
<glyph unicode="&#xb1;" horiz-adv-x="1117" d="M131 1v208h855v-208h-855zM131 686v209h319v317h218v-317h318v-209h-318v-316h-218v316h-319z" />
<glyph unicode="&#xb2;" horiz-adv-x="850" d="M74 1456v174q51 18 121 28t142 10q188 0 287 -70t99 -224q0 -80 -36.5 -157.5t-120.5 -179.5l-236 -283l-3 54h442v-177h-683v114l294 358q68 84 98 142t30 109q0 74 -47.5 108t-154.5 34q-61 0 -122 -10.5t-110 -29.5z" />
<glyph unicode="&#xb3;" horiz-adv-x="850" d="M71 653v162q65 -18 134 -28t130 -10q118 0 172 39t54 112q0 71 -49.5 108t-164.5 37h-164v163h127q111 0 162.5 37.5t51.5 102.5t-48 98.5t-149 33.5q-57 0 -120.5 -9.5t-116.5 -30.5v163q50 16 122 26.5t138 10.5q189 0 285 -71t96 -201q0 -94 -54 -157t-150 -85v12 q115 -16 177 -80t62 -172q0 -139 -105 -218t-317 -79q-70 0 -140 9.5t-133 26.5z" />
<glyph unicode="&#xb4;" horiz-adv-x="1135" d="M492 1270l226 385h287l-268 -385h-245z" />
<glyph unicode="&#xb5;" horiz-adv-x="1211" d="M124 -451v1567h268v-1567h-268zM256 403v206h136v-189q0 -116 50 -161t130 -45q39 0 82.5 12t83.5 37t71 63v791h269v-1117h-223l-18 116h-13q-55 -67 -125 -101t-148 -34q-88 0 -154.5 42t-103.5 134.5t-37 245.5z" />
<glyph unicode="&#xb6;" horiz-adv-x="1317" d="M81 996q0 279 116.5 408t358.5 129q75 0 147.5 -4.5t137.5 -12.5v-1516h-196v465q-28 -3 -54 -4t-56 -1q-229 0 -341.5 136.5t-112.5 399.5zM974 0v1516h194v-1516h-194z" />
<glyph unicode="&#xb7;" d="M89 572q0 79 48 124t131 45q82 0 130 -46t48 -123q0 -76 -49 -122t-129 -46q-81 0 -130 46t-49 122z" />
<glyph unicode="&#xb8;" horiz-adv-x="1135" d="M432 -299q42 -18 87.5 -26.5t82.5 -8.5q54 0 81 18.5t27 59.5q0 79 -109 79h-44v197h134v-154l-62 43q112 0 169 -46.5t57 -129.5q0 -81 -60.5 -128.5t-181.5 -47.5q-49 0 -96 9t-85 24v111z" />
<glyph unicode="&#xb9;" horiz-adv-x="850" d="M137 631v177h651v-177h-651zM139 1269v192l298 198h141v-1003h-218v876l77 -66z" />
<glyph unicode="&#xba;" horiz-adv-x="1009" d="M57 1072q0 229 119 345t329 116t328.5 -117t118.5 -344q0 -153 -53.5 -255.5t-154 -155.5t-239.5 -53q-210 0 -329 117.5t-119 346.5zM308 1072q0 -104 24 -164.5t69 -86t104 -25.5q60 0 104 25.5t68 86t24 164.5t-24 164t-68 85t-104 25q-59 0 -104 -25t-69 -84.5 t-24 -164.5z" />
<glyph unicode="&#xbb;" horiz-adv-x="1175" d="M55 138l258 441l-258 441h275l258 -441l-258 -441h-275zM547 138l258 441l-258 441h275l258 -441l-258 -441h-275z" />
<glyph unicode="&#xbc;" horiz-adv-x="2046" d="M137 631v177h651v-177h-651zM139 1269v192l298 198h141v-1003h-218v876l77 -66zM501 -139l819 1794h226l-820 -1794h-225zM1224 75v116l337 694h202l-335 -694l-21 49h616v-165h-799zM1701 -139v379l39 299h152v-678h-191z" />
<glyph unicode="&#xbd;" horiz-adv-x="2046" d="M137 631v177h651v-177h-651zM139 1269v192l298 198h141v-1003h-218v876l77 -66zM501 -139l819 1794h226l-820 -1794h-225zM1270 686v174q51 18 121 28t142 10q188 0 287 -70t99 -224q-1 -80 -37 -157.5t-120 -179.5l-236 -283l-3 54h442v-177h-683v114l294 358 q68 84 98 141.5t30 109.5q0 74 -47.5 108t-154.5 34q-61 0 -122 -10.5t-110 -29.5z" />
<glyph unicode="&#xbe;" horiz-adv-x="2046" d="M71 653v162q65 -18 134 -28t130 -10q118 0 172 39t54 112q0 71 -49.5 108t-164.5 37h-164v163h127q111 0 162.5 37.5t51.5 102.5t-48 98.5t-149 33.5q-57 0 -120.5 -9.5t-116.5 -30.5v163q50 16 122 26.5t138 10.5q189 0 285 -71t96 -201q0 -94 -54 -157t-150 -85v12 q115 -16 177 -80t62 -172q0 -139 -105 -218t-317 -79q-70 0 -140 9.5t-133 26.5zM501 -139l819 1794h226l-820 -1794h-225zM1224 75v116l337 694h202l-335 -694l-21 49h616v-165h-799zM1701 -139v379l39 299h152v-678h-191z" />
<glyph unicode="&#xbf;" horiz-adv-x="983" d="M55 -13q0 108 42 189.5t127.5 141.5t214.5 103l21 259h166l47 -390q-137 -34 -214.5 -74.5t-109 -91.5t-31.5 -116q0 -98 72 -151.5t221 -53.5q85 0 172.5 15t164.5 43v-214q-48 -17 -109.5 -29.5t-127.5 -20t-128 -7.5q-261 0 -394.5 104.5t-133.5 292.5zM365 972 q0 73 48.5 117t129.5 44t129.5 -43.5t48.5 -117.5q0 -73 -47.5 -117t-130.5 -44q-82 0 -130 44.5t-48 116.5z" />
<glyph unicode="&#xc0;" horiz-adv-x="1453" d="M19 0l509 1516h397l509 -1516h-272l-453 1394h31l-452 -1394h-269zM341 435l59 220h652l59 -220h-770zM379 1942h285l184 -304h-243z" />
<glyph unicode="&#xc1;" horiz-adv-x="1453" d="M19 0l509 1516h397l509 -1516h-272l-453 1394h31l-452 -1394h-269zM341 435l59 220h652l59 -220h-770zM604 1638l184 304h285l-226 -304h-243z" />
<glyph unicode="&#xc2;" horiz-adv-x="1453" d="M19 0l509 1516h397l509 -1516h-272l-453 1394h31l-452 -1394h-269zM341 435l59 220h652l59 -220h-770zM352 1638l258 304h233l258 -304h-211l-186 228h45l-186 -228h-211z" />
<glyph unicode="&#xc3;" horiz-adv-x="1453" d="M19 0l509 1516h397l509 -1516h-272l-453 1394h31l-452 -1394h-269zM341 435l59 220h652l59 -220h-770zM358 1681v162q38 36 85.5 53.5t112.5 17.5q53 0 99 -13t88 -29q40 -13 78.5 -25t78.5 -12q60 0 105.5 18t89.5 55v-162q-38 -36 -85.5 -53.5t-113.5 -17.5 q-53 0 -98 13.5t-88 28.5q-39 14 -78 25t-80 11q-60 0 -104.5 -17.5t-89.5 -54.5z" />
<glyph unicode="&#xc4;" horiz-adv-x="1453" d="M19 0l509 1516h397l509 -1516h-272l-453 1394h31l-452 -1394h-269zM321 1793q0 61 38.5 95.5t111.5 34.5q74 0 112.5 -34.5t38.5 -95.5q0 -60 -38.5 -94.5t-112.5 -34.5t-112 34.5t-38 94.5zM341 435l59 220h652l59 -220h-770zM831 1793q0 61 38.5 95.5t111.5 34.5 q74 0 112.5 -34.5t38.5 -95.5q0 -60 -38.5 -94.5t-112.5 -34.5t-112 34.5t-38 94.5z" />
<glyph unicode="&#xc5;" horiz-adv-x="1453" d="M19 0l509 1516h397l509 -1516h-272l-453 1394h31l-452 -1394h-269zM341 435l59 220h652l59 -220h-770zM513 1835q0 91 60.5 150t152.5 59t152.5 -59t60.5 -150q0 -90 -60.5 -149t-152.5 -59t-152.5 59t-60.5 149zM622 1835q0 -49 29 -77.5t75 -28.5t75.5 28.5t29.5 77.5 q0 50 -29.5 79t-75.5 29q-45 0 -74.5 -29t-29.5 -79z" />
<glyph unicode="&#xc6;" horiz-adv-x="1996" d="M19 0l515 1516h472l-1 -223h-286l-429 -1293h-271zM343 434l60 222h626v-222h-686zM878 1516h1035v-223h-754l82 -1071h682v-222h-936zM1076 665v222h734v-222h-734z" />
<glyph unicode="&#xc7;" horiz-adv-x="1235" d="M93 755q0 265 90.5 438t262.5 257.5t417 84.5q87 0 168 -9.5t159 -29.5v-228q-75 19 -151 28.5t-156 9.5q-167 0 -278.5 -54.5t-167.5 -175t-56 -317.5q0 -204 56.5 -324.5t165.5 -172.5t268 -52q80 0 158 12t161 38v-228q-74 -24 -162 -37.5t-181 -13.5 q-177 0 -317 43.5t-237 136t-148.5 240t-51.5 354.5zM535 -298q51 -18 100 -27t92 -9q61 0 94 18t33 59q0 42 -33.5 61t-94.5 19h-47v197h135v-154l-58 43q118 0 181 -44.5t63 -129.5q0 -84 -65.5 -131t-195.5 -47q-55 0 -107 9t-97 25v111z" />
<glyph unicode="&#xc8;" horiz-adv-x="1252" d="M150 0v1516h1018v-223h-748v-1071h759v-222h-1029zM314 665v222h752v-222h-752zM335 1942h285l184 -304h-243z" />
<glyph unicode="&#xc9;" horiz-adv-x="1252" d="M150 0v1516h1018v-223h-748v-1071h759v-222h-1029zM314 665v222h752v-222h-752zM560 1638l184 304h285l-226 -304h-243z" />
<glyph unicode="&#xca;" horiz-adv-x="1252" d="M150 0v1516h1018v-223h-748v-1071h759v-222h-1029zM308 1638l258 304h233l258 -304h-211l-186 228h45l-186 -228h-211zM314 665v222h752v-222h-752z" />
<glyph unicode="&#xcb;" horiz-adv-x="1252" d="M150 0v1516h1018v-223h-748v-1071h759v-222h-1029zM277 1793q0 61 38.5 95.5t111.5 34.5q74 0 112.5 -34.5t38.5 -95.5q0 -60 -38.5 -94.5t-112.5 -34.5t-112 34.5t-38 94.5zM314 665v222h752v-222h-752zM787 1793q0 61 38.5 95.5t111.5 34.5q74 0 112.5 -34.5 t38.5 -95.5q0 -60 -38.5 -94.5t-112.5 -34.5t-112 34.5t-38 94.5z" />
<glyph unicode="&#xcc;" horiz-adv-x="572" d="M-61 1942h285l184 -304h-243zM150 0v1516h273v-1516h-273z" />
<glyph unicode="&#xcd;" horiz-adv-x="572" d="M150 0v1516h273v-1516h-273zM164 1638l184 304h285l-226 -304h-243z" />
<glyph unicode="&#xce;" horiz-adv-x="572" d="M-88 1638l258 304h233l258 -304h-211l-186 228h45l-186 -228h-211zM150 0v1516h273v-1516h-273z" />
<glyph unicode="&#xcf;" horiz-adv-x="572" d="M-119 1793q0 61 38.5 95.5t111.5 34.5q74 0 112.5 -34.5t38.5 -95.5q0 -60 -38.5 -94.5t-112.5 -34.5t-112 34.5t-38 94.5zM150 0v1516h273v-1516h-273zM391 1793q0 61 38.5 95.5t111.5 34.5q74 0 112.5 -34.5t38.5 -95.5q0 -60 -38.5 -94.5t-112.5 -34.5t-112 34.5 t-38 94.5z" />
<glyph unicode="&#xd0;" horiz-adv-x="1500" d="M3 691v178h721v-178h-721zM150 9v1476q67 14 143 25t154 16.5t153 5.5q399 0 602.5 -189t203.5 -585q0 -270 -95.5 -441t-286.5 -251t-479 -80q-61 0 -126.5 2.5t-133 7.5t-135.5 13zM423 220q46 -5 91.5 -7t97.5 -2q171 0 285.5 55t170.5 175.5t56 317.5 q0 196 -56 316.5t-169.5 176.5t-281.5 56q-45 0 -95.5 -5t-98.5 -13v-1070z" />
<glyph unicode="&#xd1;" horiz-adv-x="1553" d="M150 0v1516h276l771 -1182h-51v1182h258v-1516h-277l-771 1182h52v-1182h-258zM409 1681v162q38 36 85.5 53.5t112.5 17.5q53 0 99 -13t88 -29q40 -13 78.5 -25t78.5 -12q60 0 105.5 18t89.5 55v-162q-38 -36 -85.5 -53.5t-113.5 -17.5q-53 0 -98 13.5t-88 28.5 q-39 14 -78 25t-80 11q-60 0 -104.5 -17.5t-89.5 -54.5z" />
<glyph unicode="&#xd2;" horiz-adv-x="1555" d="M93 758q0 267 85.5 439t239 255t359.5 83q207 0 360.5 -83t238.5 -255.5t85 -438.5t-85 -439t-239 -255.5t-360 -82.5t-359.5 82.5t-239 254.5t-85.5 440zM375 764q0 -205 49 -328t139 -177t214 -54q125 0 215 54t139 174.5t49 318.5q0 204 -49.5 326.5t-139.5 177.5 t-214 55q-123 0 -213.5 -54t-139.5 -174t-49 -319zM430 1942h285l184 -304h-243z" />
<glyph unicode="&#xd3;" horiz-adv-x="1555" d="M93 758q0 267 85.5 439t239 255t359.5 83q207 0 360.5 -83t238.5 -255.5t85 -438.5t-85 -439t-239 -255.5t-360 -82.5t-359.5 82.5t-239 254.5t-85.5 440zM375 764q0 -205 49 -328t139 -177t214 -54q125 0 215 54t139 174.5t49 318.5q0 204 -49.5 326.5t-139.5 177.5 t-214 55q-123 0 -213.5 -54t-139.5 -174t-49 -319zM655 1638l184 304h285l-226 -304h-243z" />
<glyph unicode="&#xd4;" horiz-adv-x="1555" d="M93 758q0 267 85.5 439t239 255t359.5 83q207 0 360.5 -83t238.5 -255.5t85 -438.5t-85 -439t-239 -255.5t-360 -82.5t-359.5 82.5t-239 254.5t-85.5 440zM375 764q0 -205 49 -328t139 -177t214 -54q125 0 215 54t139 174.5t49 318.5q0 204 -49.5 326.5t-139.5 177.5 t-214 55q-123 0 -213.5 -54t-139.5 -174t-49 -319zM403 1638l258 304h233l258 -304h-211l-186 228h45l-186 -228h-211z" />
<glyph unicode="&#xd5;" horiz-adv-x="1555" d="M93 758q0 267 85.5 439t239 255t359.5 83q207 0 360.5 -83t238.5 -255.5t85 -438.5t-85 -439t-239 -255.5t-360 -82.5t-359.5 82.5t-239 254.5t-85.5 440zM375 764q0 -205 49 -328t139 -177t214 -54q125 0 215 54t139 174.5t49 318.5q0 204 -49.5 326.5t-139.5 177.5 t-214 55q-123 0 -213.5 -54t-139.5 -174t-49 -319zM409 1681v162q38 36 85.5 53.5t112.5 17.5q53 0 99 -13t88 -29q40 -13 78.5 -25t78.5 -12q60 0 105.5 18t89.5 55v-162q-38 -36 -85.5 -53.5t-113.5 -17.5q-53 0 -98 13.5t-88 28.5q-39 14 -78 25t-80 11 q-60 0 -104.5 -17.5t-89.5 -54.5z" />
<glyph unicode="&#xd6;" horiz-adv-x="1555" d="M93 758q0 267 85.5 439t239 255t359.5 83q207 0 360.5 -83t238.5 -255.5t85 -438.5t-85 -439t-239 -255.5t-360 -82.5t-359.5 82.5t-239 254.5t-85.5 440zM372 1793q0 61 38.5 95.5t111.5 34.5q74 0 112.5 -34.5t38.5 -95.5q0 -60 -38.5 -94.5t-112.5 -34.5t-112 34.5 t-38 94.5zM375 764q0 -205 49 -328t139 -177t214 -54q125 0 215 54t139 174.5t49 318.5q0 204 -49.5 326.5t-139.5 177.5t-214 55q-123 0 -213.5 -54t-139.5 -174t-49 -319zM882 1793q0 61 38.5 95.5t111.5 34.5q74 0 112.5 -34.5t38.5 -95.5q0 -60 -38.5 -94.5 t-112.5 -34.5t-112 34.5t-38 94.5z" />
<glyph unicode="&#xd7;" horiz-adv-x="1050" d="M100 500l279 278l-279 279l147 146l278 -278l279 278l146 -146l-278 -279l278 -278l-146 -147l-279 279l-278 -279z" />
<glyph unicode="&#xd8;" horiz-adv-x="1555" d="M93 758q0 267 85.5 439t239 255t359.5 83q207 0 360.5 -83t238.5 -255.5t85 -438.5t-85 -439t-239 -255.5t-360 -82.5t-359.5 82.5t-239 254.5t-85.5 440zM99 -2l1162 1519h191l-1160 -1519h-193zM375 764q0 -205 49 -328t139 -177t214 -54q125 0 215 54t139 174.5 t49 318.5q0 204 -49.5 326.5t-139.5 177.5t-214 55q-123 0 -213.5 -54t-139.5 -174t-49 -319z" />
<glyph unicode="&#xd9;" horiz-adv-x="1502" d="M142 608v908h275v-934q0 -197 83 -285.5t255 -88.5t254.5 88.5t82.5 285.5v934h269v-908q0 -213 -64.5 -352t-198.5 -207t-343 -68q-212 0 -347.5 68t-200.5 207t-65 352zM407 1942h285l184 -304h-243z" />
<glyph unicode="&#xda;" horiz-adv-x="1502" d="M142 608v908h275v-934q0 -197 83 -285.5t255 -88.5t254.5 88.5t82.5 285.5v934h269v-908q0 -213 -64.5 -352t-198.5 -207t-343 -68q-212 0 -347.5 68t-200.5 207t-65 352zM632 1638l184 304h285l-226 -304h-243z" />
<glyph unicode="&#xdb;" horiz-adv-x="1502" d="M142 608v908h275v-934q0 -197 83 -285.5t255 -88.5t254.5 88.5t82.5 285.5v934h269v-908q0 -213 -64.5 -352t-198.5 -207t-343 -68q-212 0 -347.5 68t-200.5 207t-65 352zM380 1638l258 304h233l258 -304h-211l-186 228h45l-186 -228h-211z" />
<glyph unicode="&#xdc;" horiz-adv-x="1502" d="M142 608v908h275v-934q0 -197 83 -285.5t255 -88.5t254.5 88.5t82.5 285.5v934h269v-908q0 -213 -64.5 -352t-198.5 -207t-343 -68q-212 0 -347.5 68t-200.5 207t-65 352zM349 1793q0 61 38.5 95.5t111.5 34.5q74 0 112.5 -34.5t38.5 -95.5q0 -60 -38.5 -94.5 t-112.5 -34.5t-112 34.5t-38 94.5zM859 1793q0 61 38.5 95.5t111.5 34.5q74 0 112.5 -34.5t38.5 -95.5q0 -60 -38.5 -94.5t-112.5 -34.5t-112 34.5t-38 94.5z" />
<glyph unicode="&#xdd;" horiz-adv-x="1276" d="M-46 1516h294l438 -695h-81l433 695h274l-592 -954l57 199v-761h-274v764l56 -202zM517 1638l184 304h285l-226 -304h-243z" />
<glyph unicode="&#xde;" horiz-adv-x="1328" d="M150 0v1516h273v-212q35 5 78 8.5t91 3.5q319 0 482 -129t163 -409q0 -263 -161 -399.5t-485 -136.5q-45 0 -84.5 2t-83.5 5v-249h-273zM423 461q42 -5 82 -7t87 -2q198 0 288 77t90 247q0 173 -89 251.5t-274 78.5q-53 0 -97 -3.5t-87 -10.5v-631z" />
<glyph unicode="&#xdf;" horiz-adv-x="1541" d="M24 899v218h299v-218h-299zM215 0v1091q0 188 71.5 318.5t206 198t323.5 67.5q155 0 274.5 -53.5t188 -167.5t68.5 -295q0 -61 -9.5 -122t-23.5 -113q-33 5 -71 8t-86 3q-103 0 -161 -19t-80.5 -50.5t-22.5 -69.5q0 -46 27.5 -76.5t95.5 -44.5l171 -32 q152 -30 224.5 -103t72.5 -212q0 -162 -125 -255t-366 -93q-80 0 -165 10t-161 32v201q52 -14 106.5 -24t109.5 -15t107 -5q134 0 188 36.5t54 100.5q0 54 -28 83t-98 42l-171 33q-156 30 -225.5 108t-69.5 206q0 155 120.5 247t361.5 92q20 0 48.5 -1t56.5 -3t51 -4 l-151 -119q11 43 17.5 88.5t6.5 89.5q0 113 -40.5 179.5t-111.5 97t-163 30.5q-116 0 -194.5 -41t-118 -128t-39.5 -224v-1092h-269z" />
<glyph unicode="&#xe0;" horiz-adv-x="1112" d="M75 297q0 154 105 240.5t338 103.5l258 25l29 -156l-261 -24q-108 -10 -155 -51t-47 -112q0 -73 43 -112t127 -39q55 0 111.5 21.5t102.5 71.5v440q0 85 -27 133.5t-86 68.5t-153 20q-63 0 -144.5 -11.5t-157.5 -34.5v205q79 24 172.5 36.5t175.5 12.5q165 0 272 -41.5 t159 -139.5t52 -266v-688h-222l-19 116h-14q-51 -69 -131.5 -102t-173.5 -33q-167 0 -260.5 86.5t-93.5 229.5zM163 1655h287l226 -385h-245z" />
<glyph unicode="&#xe1;" horiz-adv-x="1112" d="M75 297q0 154 105 240.5t338 103.5l258 25l29 -156l-261 -24q-108 -10 -155 -51t-47 -112q0 -73 43 -112t127 -39q55 0 111.5 21.5t102.5 71.5v440q0 85 -27 133.5t-86 68.5t-153 20q-63 0 -144.5 -11.5t-157.5 -34.5v205q79 24 172.5 36.5t175.5 12.5q165 0 272 -41.5 t159 -139.5t52 -266v-688h-222l-19 116h-14q-51 -69 -131.5 -102t-173.5 -33q-167 0 -260.5 86.5t-93.5 229.5zM431 1270l226 385h287l-268 -385h-245z" />
<glyph unicode="&#xe2;" horiz-adv-x="1112" d="M75 297q0 154 105 240.5t338 103.5l258 25l29 -156l-261 -24q-108 -10 -155 -51t-47 -112q0 -73 43 -112t127 -39q55 0 111.5 21.5t102.5 71.5v440q0 85 -27 133.5t-86 68.5t-153 20q-63 0 -144.5 -11.5t-157.5 -34.5v205q79 24 172.5 36.5t175.5 12.5q165 0 272 -41.5 t159 -139.5t52 -266v-688h-222l-19 116h-14q-51 -69 -131.5 -102t-173.5 -33q-167 0 -260.5 86.5t-93.5 229.5zM206 1270l235 385h225l235 -385h-198l-171 294h43l-171 -294h-198z" />
<glyph unicode="&#xe3;" horiz-adv-x="1112" d="M75 297q0 154 105 240.5t338 103.5l258 25l29 -156l-261 -24q-108 -10 -155 -51t-47 -112q0 -73 43 -112t127 -39q55 0 111.5 21.5t102.5 71.5v440q0 85 -27 133.5t-86 68.5t-153 20q-63 0 -144.5 -11.5t-157.5 -34.5v205q79 24 172.5 36.5t175.5 12.5q165 0 272 -41.5 t159 -139.5t52 -266v-688h-222l-19 116h-14q-51 -69 -131.5 -102t-173.5 -33q-167 0 -260.5 86.5t-93.5 229.5zM206 1345v174q73 76 191 75q48 0 91 -15t82 -34q38 -15 73 -28.5t71 -13.5q55 0 99.5 20.5t87.5 63.5v-174q-73 -76 -191 -76q-48 0 -90.5 16t-82.5 33 q-37 16 -72.5 29t-71.5 13q-54 0 -98.5 -19.5t-88.5 -63.5z" />
<glyph unicode="&#xe4;" horiz-adv-x="1112" d="M75 297q0 154 105 240.5t338 103.5l258 25l29 -156l-261 -24q-108 -10 -155 -51t-47 -112q0 -73 43 -112t127 -39q55 0 111.5 21.5t102.5 71.5v440q0 85 -27 133.5t-86 68.5t-153 20q-63 0 -144.5 -11.5t-157.5 -34.5v205q79 24 172.5 36.5t175.5 12.5q165 0 272 -41.5 t159 -139.5t52 -266v-688h-222l-19 116h-14q-51 -69 -131.5 -102t-173.5 -33q-167 0 -260.5 86.5t-93.5 229.5zM161 1454q0 67 39.5 105t112.5 38t112 -38t39 -105t-39 -104.5t-112 -37.5t-112.5 38t-39.5 104zM642 1454q0 67 39.5 105t112.5 38t112.5 -38t39.5 -105 t-39.5 -104.5t-112.5 -37.5t-112.5 38t-39.5 104z" />
<glyph unicode="&#xe5;" horiz-adv-x="1112" d="M75 297q0 154 105 240.5t338 103.5l258 25l29 -156l-261 -24q-108 -10 -155 -51t-47 -112q0 -73 43 -112t127 -39q55 0 111.5 21.5t102.5 71.5v440q0 85 -27 133.5t-86 68.5t-153 20q-63 0 -144.5 -11.5t-157.5 -34.5v205q79 24 172.5 36.5t175.5 12.5q165 0 272 -41.5 t159 -139.5t52 -266v-688h-222l-19 116h-14q-51 -69 -131.5 -102t-173.5 -33q-167 0 -260.5 86.5t-93.5 229.5zM340 1474q0 90 60.5 148.5t152.5 58.5t152.5 -58.5t60.5 -148.5q0 -91 -60.5 -150t-152.5 -59t-152.5 58.5t-60.5 150.5zM449 1474q0 -49 29 -78.5t75 -29.5 t75.5 29t29.5 79q0 49 -29.5 77.5t-75.5 28.5q-45 0 -74.5 -28.5t-29.5 -77.5z" />
<glyph unicode="&#xe6;" horiz-adv-x="1738" d="M75 299q0 100 46.5 177t148 120.5t265.5 43.5h247v-157h-224q-80 0 -127.5 -21t-68 -57.5t-20.5 -83.5q0 -72 44 -110.5t129 -38.5q71 0 138 31t125 113l81 -132q-88 -116 -192 -159.5t-215 -43.5q-121 0 -205.5 38.5t-128 110t-43.5 169.5zM159 881v205q82 25 169.5 37 t166.5 12q156 0 256.5 -43.5t149 -140t48.5 -255.5v-145l-221 9v143q0 86 -28.5 135t-88 69t-152.5 20q-62 0 -143.5 -11.5t-156.5 -34.5zM728 560l41 21q0 178 54 302t155 188t244 64q141 0 242 -64t154.5 -193.5t53.5 -325.5v-74h-733v162h528l-47 -25q0 129 -24.5 204.5 t-72 107.5t-116.5 32q-70 0 -118.5 -32t-74 -107t-25.5 -202v-104q0 -121 34 -193t109.5 -103.5t201.5 -31.5q63 0 134 10.5t145 28.5v-206q-85 -22 -162.5 -30.5t-152.5 -8.5q-194 0 -320 59.5t-188 187.5t-62 333z" />
<glyph unicode="&#xe7;" horiz-adv-x="953" d="M80 557q0 199 68.5 327t199.5 189.5t319 61.5q65 0 125.5 -7t115.5 -20v-216q-53 11 -104 17t-103 6q-118 0 -194 -35t-113 -113.5t-37 -206.5q0 -131 35.5 -211t105 -115t173.5 -35q53 0 109.5 9.5t127.5 30.5v-216q-62 -20 -133 -31.5t-145 -11.5q-177 0 -300 61.5 t-186.5 189.5t-63.5 326zM372 -299q42 -18 87.5 -26.5t82.5 -8.5q54 0 81 18.5t27 59.5q0 79 -109 79h-44v197h134v-154l-62 43q112 0 169 -46.5t57 -129.5q0 -81 -60.5 -128.5t-181.5 -47.5q-49 0 -96 9t-85 24v111z" />
<glyph unicode="&#xe8;" horiz-adv-x="1106" d="M80 559q0 189 59 317.5t169.5 193.5t266.5 65q151 0 255 -65t157 -195.5t53 -323.5v-73h-809v162h605l-48 -23q0 127 -24.5 202t-72.5 107t-119 32t-121 -31.5t-76 -106.5t-26 -202v-104q0 -121 34.5 -193t111 -103.5t205.5 -31.5q65 0 135.5 10.5t145.5 28.5v-206 q-86 -22 -163 -30.5t-154 -8.5q-198 0 -327.5 59.5t-193 187.5t-63.5 332zM180 1655h287l226 -385h-245z" />
<glyph unicode="&#xe9;" horiz-adv-x="1106" d="M80 559q0 189 59 317.5t169.5 193.5t266.5 65q151 0 255 -65t157 -195.5t53 -323.5v-73h-809v162h605l-48 -23q0 127 -24.5 202t-72.5 107t-119 32t-121 -31.5t-76 -106.5t-26 -202v-104q0 -121 34.5 -193t111 -103.5t205.5 -31.5q65 0 135.5 10.5t145.5 28.5v-206 q-86 -22 -163 -30.5t-154 -8.5q-198 0 -327.5 59.5t-193 187.5t-63.5 332zM448 1270l226 385h287l-268 -385h-245z" />
<glyph unicode="&#xea;" horiz-adv-x="1106" d="M80 559q0 189 59 317.5t169.5 193.5t266.5 65q151 0 255 -65t157 -195.5t53 -323.5v-73h-809v162h605l-48 -23q0 127 -24.5 202t-72.5 107t-119 32t-121 -31.5t-76 -106.5t-26 -202v-104q0 -121 34.5 -193t111 -103.5t205.5 -31.5q65 0 135.5 10.5t145.5 28.5v-206 q-86 -22 -163 -30.5t-154 -8.5q-198 0 -327.5 59.5t-193 187.5t-63.5 332zM223 1270l235 385h225l235 -385h-198l-171 294h43l-171 -294h-198z" />
<glyph unicode="&#xeb;" horiz-adv-x="1106" d="M80 559q0 189 59 317.5t169.5 193.5t266.5 65q151 0 255 -65t157 -195.5t53 -323.5v-73h-809v162h605l-48 -23q0 127 -24.5 202t-72.5 107t-119 32t-121 -31.5t-76 -106.5t-26 -202v-104q0 -121 34.5 -193t111 -103.5t205.5 -31.5q65 0 135.5 10.5t145.5 28.5v-206 q-86 -22 -163 -30.5t-154 -8.5q-198 0 -327.5 59.5t-193 187.5t-63.5 332zM178 1454q0 67 39.5 105t112.5 38t112 -38t39 -105t-39 -104.5t-112 -37.5t-112.5 38t-39.5 104zM659 1454q0 67 39.5 105t112.5 38t112.5 -38t39.5 -105t-39.5 -104.5t-112.5 -37.5t-112.5 38 t-39.5 104z" />
<glyph unicode="&#xec;" horiz-adv-x="536" d="M-122 1655h287l226 -385h-245zM133 0v1117h269v-1117h-269z" />
<glyph unicode="&#xed;" horiz-adv-x="536" d="M133 0v1117h269v-1117h-269zM146 1270l226 385h287l-268 -385h-245z" />
<glyph unicode="&#xee;" horiz-adv-x="536" d="M-79 1270l235 385h225l235 -385h-198l-171 294h43l-171 -294h-198zM133 0v1117h269v-1117h-269z" />
<glyph unicode="&#xef;" horiz-adv-x="536" d="M-124 1454q0 67 39.5 105t112.5 38t112 -38t39 -105t-39 -104.5t-112 -37.5t-112.5 38t-39.5 104zM133 0v1117h269v-1117h-269zM357 1454q0 67 39.5 105t112.5 38t112.5 -38t39.5 -105t-39.5 -104.5t-112.5 -37.5t-112.5 38t-39.5 104z" />
<glyph unicode="&#xf0;" horiz-adv-x="1199" d="M80 556q0 198 62.5 325t174.5 187.5t260 60.5q94 0 178.5 -39t140.5 -137l-92 4q-38 126 -112 249t-179.5 236.5t-240.5 212.5h322q111 -83 206.5 -200.5t167.5 -256t112 -288t40 -298.5q0 -221 -62.5 -360.5t-179 -206.5t-277.5 -67t-277.5 62.5t-180 191t-63.5 324.5z M168 1377l894 158l30 -152l-894 -157zM351 557q0 -141 30 -222t85.5 -115.5t134.5 -34.5q77 0 132 36t85 116.5t30 215.5q0 142 -30 223.5t-85 116t-133 34.5t-133.5 -34t-85.5 -115t-30 -221z" />
<glyph unicode="&#xf1;" horiz-adv-x="1220" d="M133 0v1117h223l19 -118h13q65 66 151 101t185 35q109 0 193 -42t132.5 -135t48.5 -247v-711h-270v695q0 116 -49 161t-135 45q-41 0 -85 -11t-85 -36t-72 -64v-790h-269zM269 1345v174q73 76 191 75q48 0 91 -15t82 -34q38 -15 73 -28.5t71 -13.5q55 0 99.5 20.5 t87.5 63.5v-174q-73 -76 -191 -76q-48 0 -90.5 16t-82.5 33q-37 16 -72.5 29t-71.5 13q-54 0 -98.5 -19.5t-88.5 -63.5z" />
<glyph unicode="&#xf2;" horiz-adv-x="1199" d="M80 556q0 198 62.5 326t179 190.5t278.5 62.5t278.5 -62.5t178.5 -190.5t62 -325q0 -196 -63.5 -324.5t-180 -190.5t-275.5 -62t-275.5 62t-180.5 189.5t-64 324.5zM210 1655h287l226 -385h-245zM351 559q0 -142 30 -223.5t85.5 -115.5t133.5 -34t133 34t85 114.5 t30 220.5q0 142 -30 223.5t-85.5 115.5t-132.5 34q-78 0 -133.5 -34t-85.5 -114.5t-30 -220.5z" />
<glyph unicode="&#xf3;" horiz-adv-x="1199" d="M80 556q0 198 62.5 326t179 190.5t278.5 62.5t278.5 -62.5t178.5 -190.5t62 -325q0 -196 -63.5 -324.5t-180 -190.5t-275.5 -62t-275.5 62t-180.5 189.5t-64 324.5zM351 559q0 -142 30 -223.5t85.5 -115.5t133.5 -34t133 34t85 114.5t30 220.5q0 142 -30 223.5 t-85.5 115.5t-132.5 34q-78 0 -133.5 -34t-85.5 -114.5t-30 -220.5zM478 1270l226 385h287l-268 -385h-245z" />
<glyph unicode="&#xf4;" horiz-adv-x="1199" d="M80 556q0 198 62.5 326t179 190.5t278.5 62.5t278.5 -62.5t178.5 -190.5t62 -325q0 -196 -63.5 -324.5t-180 -190.5t-275.5 -62t-275.5 62t-180.5 189.5t-64 324.5zM253 1270l235 385h225l235 -385h-198l-171 294h43l-171 -294h-198zM351 559q0 -142 30 -223.5 t85.5 -115.5t133.5 -34t133 34t85 114.5t30 220.5q0 142 -30 223.5t-85.5 115.5t-132.5 34q-78 0 -133.5 -34t-85.5 -114.5t-30 -220.5z" />
<glyph unicode="&#xf5;" horiz-adv-x="1199" d="M80 556q0 198 62.5 326t179 190.5t278.5 62.5t278.5 -62.5t178.5 -190.5t62 -325q0 -196 -63.5 -324.5t-180 -190.5t-275.5 -62t-275.5 62t-180.5 189.5t-64 324.5zM253 1345v174q73 76 191 75q48 0 91 -15t82 -34q38 -15 73 -28.5t71 -13.5q55 0 99.5 20.5t87.5 63.5 v-174q-73 -76 -191 -76q-48 0 -90.5 16t-82.5 33q-37 16 -72.5 29t-71.5 13q-54 0 -98.5 -19.5t-88.5 -63.5zM351 559q0 -142 30 -223.5t85.5 -115.5t133.5 -34t133 34t85 114.5t30 220.5q0 142 -30 223.5t-85.5 115.5t-132.5 34q-78 0 -133.5 -34t-85.5 -114.5t-30 -220.5z " />
<glyph unicode="&#xf6;" horiz-adv-x="1199" d="M80 556q0 198 62.5 326t179 190.5t278.5 62.5t278.5 -62.5t178.5 -190.5t62 -325q0 -196 -63.5 -324.5t-180 -190.5t-275.5 -62t-275.5 62t-180.5 189.5t-64 324.5zM208 1454q0 67 39.5 105t112.5 38t112 -38t39 -105t-39 -104.5t-112 -37.5t-112.5 38t-39.5 104z M351 559q0 -142 30 -223.5t85.5 -115.5t133.5 -34t133 34t85 114.5t30 220.5q0 142 -30 223.5t-85.5 115.5t-132.5 34q-78 0 -133.5 -34t-85.5 -114.5t-30 -220.5zM689 1454q0 67 39.5 105t112.5 38t112.5 -38t39.5 -105t-39.5 -104.5t-112.5 -37.5t-112.5 38t-39.5 104z " />
<glyph unicode="&#xf7;" horiz-adv-x="1117" d="M131 674v209h855v-209h-855zM395 381q0 72 44 113.5t120 41.5t120 -42t44 -113q0 -69 -45 -111.5t-119 -42.5q-75 0 -119.5 41.5t-44.5 112.5zM395 1175q0 72 44 113t120 41t120 -42t44 -112t-45 -112t-119 -42q-75 0 -119.5 41t-44.5 113z" />
<glyph unicode="&#xf8;" horiz-adv-x="1199" d="M80 556q0 198 62.5 326t179 190.5t278.5 62.5q80 0 148.5 -17.5t124.5 -53.5l48 65h177l-108 -150q62 -71 95.5 -176.5t33.5 -245.5q0 -196 -63.5 -324.5t-180 -190.5t-275.5 -62q-81 0 -150.5 17t-125.5 55l-48 -64h-176l109 151q-62 71 -95.5 175t-33.5 242zM344 559 q0 -65 9 -115t27 -85l371 518q-29 30 -67.5 42t-83.5 12q-80 0 -137 -34t-88 -115.5t-31 -222.5zM446 240q30 -30 68.5 -43.5t85.5 -13.5q80 0 137.5 34t87.5 115.5t30 222.5q0 68 -9 119t-27 88z" />
<glyph unicode="&#xf9;" horiz-adv-x="1211" d="M124 403v714h268v-697q0 -116 50 -161t129 -45q40 0 83.5 12t83.5 37t71 63v791h269v-1117h-223l-18 116h-13q-66 -67 -149.5 -101t-175.5 -34q-110 0 -194.5 42t-132.5 134.5t-48 245.5zM211 1655h287l226 -385h-245z" />
<glyph unicode="&#xfa;" horiz-adv-x="1211" d="M124 403v714h268v-697q0 -116 50 -161t129 -45q40 0 83.5 12t83.5 37t71 63v791h269v-1117h-223l-18 116h-13q-66 -67 -149.5 -101t-175.5 -34q-110 0 -194.5 42t-132.5 134.5t-48 245.5zM479 1270l226 385h287l-268 -385h-245z" />
<glyph unicode="&#xfb;" horiz-adv-x="1211" d="M124 403v714h268v-697q0 -116 50 -161t129 -45q40 0 83.5 12t83.5 37t71 63v791h269v-1117h-223l-18 116h-13q-66 -67 -149.5 -101t-175.5 -34q-110 0 -194.5 42t-132.5 134.5t-48 245.5zM254 1270l235 385h225l235 -385h-198l-171 294h43l-171 -294h-198z" />
<glyph unicode="&#xfc;" horiz-adv-x="1211" d="M124 403v714h268v-697q0 -116 50 -161t129 -45q40 0 83.5 12t83.5 37t71 63v791h269v-1117h-223l-18 116h-13q-66 -67 -149.5 -101t-175.5 -34q-110 0 -194.5 42t-132.5 134.5t-48 245.5zM209 1454q0 67 39.5 105t112.5 38t112 -38t39 -105t-39 -104.5t-112 -37.5 t-112.5 38t-39.5 104zM690 1454q0 67 39.5 105t112.5 38t112.5 -38t39.5 -105t-39.5 -104.5t-112.5 -37.5t-112.5 38t-39.5 104z" />
<glyph unicode="&#xfd;" horiz-adv-x="1155" d="M5 1117h282l372 -1117h-251zM318 -451l164 451l91 209l311 908h266l-566 -1568h-266zM455 1270l226 385h287l-268 -385h-245z" />
<glyph unicode="&#xfe;" horiz-adv-x="1222" d="M133 -451v2106h269v-649h14q50 59 124.5 94t172.5 35q117 0 214.5 -56.5t156.5 -179t59 -319.5t-67 -330.5t-199.5 -201.5t-326.5 -68q-38 0 -76.5 3t-71.5 7v-441h-269zM402 203q31 -6 71 -11t78 -5q160 0 240 86t80 285q0 138 -32.5 215t-90.5 107.5t-133 30.5 q-58 0 -115.5 -22t-97.5 -71v-615z" />
<glyph unicode="&#xff;" horiz-adv-x="1155" d="M5 1117h282l372 -1117h-251zM185 1454q0 67 39.5 105t112.5 38t112 -38t39 -105t-39 -104.5t-112 -37.5t-112.5 38t-39.5 104zM318 -451l164 451l91 209l311 908h266l-566 -1568h-266zM666 1454q0 67 39.5 105t112.5 38t112.5 -38t39.5 -105t-39.5 -104.5t-112.5 -37.5 t-112.5 38t-39.5 104z" />
<glyph unicode="&#x152;" horiz-adv-x="2125" d="M93 758q0 264 95.5 434.5t279 253.5t451.5 83q82 0 165 -6.5t157 -6.5h802v-223h-716v-1071h726v-222h-806q-48 0 -102 -3t-110 -5.5t-108 -2.5q-278 0 -463 81t-278 250.5t-93 437.5zM375 757q0 -195 56 -314.5t167 -174t276 -54.5q50 0 96 1.5t86 4.5v1074 q-47 5 -92.5 7.5t-94.5 2.5q-165 0 -274.5 -56t-164.5 -176.5t-55 -314.5zM1225 665v222h714v-222h-714z" />
<glyph unicode="&#x153;" horiz-adv-x="1864" d="M80 556q0 198 62 326t175.5 190.5t269.5 62.5q158 0 265 -66.5t161.5 -195t54.5 -316.5t-56 -316.5t-163 -194.5t-262 -66q-153 0 -266.5 62t-177 189.5t-63.5 324.5zM351 559q0 -142 30 -223.5t85 -115.5t132 -34t132 34t85 114.5t30 220.5q0 142 -30 223.5t-85.5 115.5 t-131.5 34q-77 0 -132 -34t-85 -114.5t-30 -220.5zM871 560l24 21q0 176 54.5 300t155.5 189t243 65q141 0 242 -64t155 -193.5t54 -325.5v-74h-734v162h528l-46 -25q0 129 -25 204.5t-72 107.5t-117 32q-69 0 -117.5 -32t-74.5 -107t-26 -202v-104q0 -121 34 -193 t109.5 -103.5t201.5 -31.5q65 0 135.5 10.5t143.5 28.5v-206q-85 -22 -162 -30.5t-152 -8.5q-195 0 -317 61t-179.5 189t-57.5 330z" />
<glyph unicode="&#x178;" horiz-adv-x="1276" d="M-46 1516h294l438 -695h-81l433 695h274l-592 -954l57 199v-761h-274v764l56 -202zM234 1793q0 61 38.5 95.5t111.5 34.5q74 0 112.5 -34.5t38.5 -95.5q0 -60 -38.5 -94.5t-112.5 -34.5t-112 34.5t-38 94.5zM744 1793q0 61 38.5 95.5t111.5 34.5q74 0 112.5 -34.5 t38.5 -95.5q0 -60 -38.5 -94.5t-112.5 -34.5t-112 34.5t-38 94.5z" />
<glyph unicode="&#x2c6;" horiz-adv-x="1135" d="M267 1270l235 385h225l235 -385h-198l-171 294h43l-171 -294h-198z" />
<glyph unicode="&#x2dc;" horiz-adv-x="1135" d="M267 1345v174q73 76 191 75q48 0 91 -15t82 -34q38 -15 73 -28.5t71 -13.5q55 0 99.5 20.5t87.5 63.5v-174q-73 -76 -191 -76q-48 0 -90.5 16t-82.5 33q-37 16 -72.5 29t-71.5 13q-54 0 -98.5 -19.5t-88.5 -63.5z" />
<glyph unicode="&#x2000;" horiz-adv-x="1022" />
<glyph unicode="&#x2001;" horiz-adv-x="2044" />
<glyph unicode="&#x2002;" horiz-adv-x="1022" />
<glyph unicode="&#x2003;" horiz-adv-x="2044" />
<glyph unicode="&#x2004;" horiz-adv-x="681" />
<glyph unicode="&#x2005;" horiz-adv-x="511" />
<glyph unicode="&#x2006;" horiz-adv-x="340" />
<glyph unicode="&#x2007;" horiz-adv-x="340" />
<glyph unicode="&#x2008;" horiz-adv-x="255" />
<glyph unicode="&#x2009;" horiz-adv-x="408" />
<glyph unicode="&#x200a;" horiz-adv-x="113" />
<glyph unicode="&#x2010;" horiz-adv-x="905" d="M131 469v220h643v-220h-643z" />
<glyph unicode="&#x2011;" horiz-adv-x="905" d="M131 469v220h643v-220h-643z" />
<glyph unicode="&#x2012;" horiz-adv-x="905" d="M131 469v220h643v-220h-643z" />
<glyph unicode="&#x2013;" horiz-adv-x="921" d="M0 483v192h922v-192h-922z" />
<glyph unicode="&#x2014;" horiz-adv-x="1843" d="M0 483v192h1843v-192h-1843z" />
<glyph unicode="&#x2018;" d="M90 1212q0 119 39 235t101 208h155q-45 -103 -70.5 -193t-25.5 -183l-56 51h34q81 0 130 -45.5t49 -123.5q0 -79 -46 -123.5t-122 -44.5q-92 0 -140 54.5t-48 164.5z" />
<glyph unicode="&#x2019;" d="M89 1502q0 79 47 123.5t127 44.5q88 0 135 -54t47 -165q0 -118 -38.5 -233.5t-101.5 -208.5h-154q45 105 70 194.5t25 180.5l56 -50h-35q-80 0 -129 45.5t-49 122.5z" />
<glyph unicode="&#x201a;" d="M89 153q0 79 47 123.5t127 44.5q88 0 135 -54.5t47 -165.5q0 -118 -38.5 -233.5t-101.5 -208.5h-154q45 105 70 195t25 181l56 -50h-35q-80 0 -129 45.5t-49 122.5z" />
<glyph unicode="&#x201c;" horiz-adv-x="989" d="M90 1212q0 119 39 235t101 208h155q-45 -103 -70.5 -193t-25.5 -183l-56 51h34q81 0 130 -45.5t49 -123.5q0 -79 -46 -123.5t-122 -44.5q-92 0 -140 54.5t-48 164.5zM545 1212q0 119 39 235t101 208h155q-45 -103 -70.5 -193t-25.5 -183l-56 51h34q81 0 130 -45.5 t49 -123.5q0 -79 -46 -123.5t-122 -44.5q-92 0 -140 54.5t-48 164.5z" />
<glyph unicode="&#x201d;" horiz-adv-x="989" d="M89 1502q0 79 47 123.5t127 44.5q88 0 135 -54t47 -165q0 -118 -38.5 -233.5t-101.5 -208.5h-154q45 105 70 194.5t25 180.5l56 -50h-35q-80 0 -129 45.5t-49 122.5zM544 1502q0 79 47 123.5t127 44.5q88 0 135 -54t47 -165q0 -118 -38.5 -233.5t-101.5 -208.5h-154 q45 105 70 194.5t25 180.5l56 -50h-35q-80 0 -129 45.5t-49 122.5z" />
<glyph unicode="&#x201e;" horiz-adv-x="989" d="M89 153q0 79 47 123.5t127 44.5q88 0 135 -54.5t47 -165.5q0 -118 -38.5 -233.5t-101.5 -208.5h-154q45 105 70 195t25 181l56 -50h-35q-80 0 -129 45.5t-49 122.5zM544 153q0 79 47 123.5t127 44.5q88 0 135 -54.5t47 -165.5q0 -118 -38.5 -233.5t-101.5 -208.5h-154 q45 105 70 195t25 181l56 -50h-35q-80 0 -129 45.5t-49 122.5z" />
<glyph unicode="&#x2022;" horiz-adv-x="760" d="M89 573q0 85 39 151t105 103.5t148 37.5q81 0 147 -37.5t105 -103.5t39 -151t-38.5 -150.5t-105 -103t-148.5 -37.5q-81 0 -147.5 37.5t-105 103.5t-38.5 150z" />
<glyph unicode="&#x2026;" horiz-adv-x="1564" d="M89 153q0 78 48 123t131 45q82 0 130 -46.5t48 -121.5q0 -76 -49 -122t-129 -46q-81 0 -130 45t-49 123zM604 153q0 78 48 123t131 45q82 0 130 -46.5t48 -121.5q0 -76 -49 -122t-129 -46q-81 0 -130 45t-49 123zM1118 153q0 78 48 123t131 45q82 0 130 -46.5t48 -121.5 q0 -76 -49 -122t-129 -46q-81 0 -130 45t-49 123z" />
<glyph unicode="&#x202f;" horiz-adv-x="408" />
<glyph unicode="&#x2039;" horiz-adv-x="684" d="M96 579l258 441h275l-258 -441l258 -441h-275z" />
<glyph unicode="&#x203a;" horiz-adv-x="684" d="M55 138l258 441l-258 441h275l258 -441l-258 -441h-275z" />
<glyph unicode="&#x205f;" horiz-adv-x="511" />
<glyph unicode="&#x20ac;" horiz-adv-x="1394" d="M71 513v165h1086v-165h-1086zM71 858v165h1086v-165h-1086zM252 755q0 265 92 438t264 257.5t414 84.5q87 0 168 -9.5t159 -29.5v-223q-75 19 -151.5 29t-156.5 10q-169 0 -281.5 -55t-169 -176.5t-56.5 -321.5q0 -207 56.5 -328.5t167 -174t272.5 -52.5q80 0 158 12.5 t161 38.5v-223q-74 -24 -162 -37.5t-181 -13.5q-175 0 -314.5 43.5t-237.5 136t-150 240t-52 354.5z" />
<glyph unicode="&#x2122;" horiz-adv-x="2192" d="M13 1338v178h856v-178h-318v-846h-218v846h-320zM961 492v1024h264l297 -683h-27l290 683h264v-1024h-205v831h45l-295 -684h-179l-304 684h54v-831h-204z" />
<glyph unicode="&#x25fc;" horiz-adv-x="1116" d="M0 0v1116h1116v-1116h-1116z" />
<glyph unicode="&#xfb01;" horiz-adv-x="1327" d="M24 903v214h773v-214h-773zM215 0v1237q0 138 52 236.5t152 150t243 51.5q41 0 79 -3.5t74 -11.5v-213q-29 7 -57.5 9.5t-58.5 2.5q-108 0 -162.5 -49.5t-54.5 -158.5v-1251h-267zM888 1454q0 70 42.5 108.5t128.5 38.5q87 0 129 -38.5t42 -108.5q0 -69 -42 -107.5 t-129 -38.5q-86 0 -128.5 38.5t-42.5 107.5zM924 0v1117h270v-1117h-270z" />
<glyph unicode="&#xfb02;" horiz-adv-x="1326" d="M24 903v214h773v-214h-773zM215 0v1237q0 138 52 236.5t152 150t243 51.5q41 0 79 -3.5t74 -11.5v-213q-29 7 -57.5 9.5t-58.5 2.5q-108 0 -162.5 -49.5t-54.5 -158.5v-1251h-267zM924 0v1655h269v-1655h-269z" />
</font>
</defs>
</svg>
